Advertisement
eipieq-1

Test.fieldop1_staxrip.log

Jul 6th, 2020 (edited)
177
Never
Not a member of Pastebin yet? Sign Up, it unlocks many cool features!
text 15.15 KB | None
  1. ------------------------- System Environment -------------------------
  2.  
  3. StaxRip : 2.1.3.7
  4. Windows : Windows 10 Home 2004
  5. Language : English (United States)
  6. CPU : Intel(R) Core(TM) i5-7300HQ CPU @ 2.50GHz
  7. GPU : NVIDIA GeForce GTX 1060 with Max-Q Design, Intel(R) HD Graphics 630
  8. Resolution : 2560 x 1080
  9. DPI : 120
  10.  
  11. ----------------------- Media Info Source File -----------------------
  12.  
  13. D:\Work\tmp\Test.vob
  14.  
  15. General
  16. Complete name : D:\Work\tmp\Test.vob
  17. Format : MPEG-PS
  18. File size : 594 MiB
  19. Duration : 19 min 20 s
  20. Overall bit rate mode : Variable
  21. Overall bit rate : 4 297 kb/s
  22.  
  23. Video
  24. ID : 224 (0xE0)
  25. Format : MPEG Video
  26. Format version : Version 2
  27. Format profile : Main@Main
  28. Format settings : CustomMatrix / BVOP
  29. Format, BVOP : Yes
  30. Format, Matrix : Custom
  31. Format, GOP : Variable
  32. Duration : 501 ms
  33. Bit rate mode : Variable
  34. Bit rate : 4 019 kb/s
  35. Width : 720 pixels
  36. Height : 480 pixels
  37. Display aspect ratio : 4:3
  38. Frame rate : 23.976 (24000/1001) FPS
  39. Color space : YUV
  40. Chroma subsampling : 4:2:0
  41. Bit depth : 8 bits
  42. Scan type : Progressive
  43. Scan order : 2:3 Pulldown
  44. Compression mode : Lossy
  45. Bits/(Pixel*Frame) : 0.485
  46. Time code of first frame : 01:00:00:00
  47. Time code source : Group of pictures header
  48. Stream size : 246 KiB (0%)
  49.  
  50. Audio
  51. ID : 189 (0xBD)-128 (0x80)
  52. Format : AC-3
  53. Format/Info : Audio Coding 3
  54. Commercial name : Dolby Digital
  55. Muxing mode : DVD-Video
  56. Duration : 19 min 20 s
  57. Bit rate mode : Constant
  58. Bit rate : 192 kb/s
  59. Channel(s) : 2 channels
  60. Channel layout : L R
  61. Sampling rate : 48.0 kHz
  62. Frame rate : 31.250 FPS (1536 SPF)
  63. Compression mode : Lossy
  64. Stream size : 26.6 MiB (4%)
  65. Service kind : Complete Main
  66.  
  67. Text
  68. ID : 224 (0xE0)-CC3
  69. Format : EIA-608
  70. Muxing mode, more info : Muxed in Video #1
  71. Duration : 501 ms
  72. Bit rate mode : Constant
  73. Stream size : 0.00 Byte (0%)
  74. CaptionServiceName : CC3
  75.  
  76. Menu
  77.  
  78. ----------------------- DGIndexNV: Index, Demux -----------------------
  79.  
  80. "D:\Utilities\StaxRip\Settings\Plugins\Dual\DGDecNV\DGIndexNV.exe" -i "D:\Work\tmp\Test.vob" -o "D:\Work\tmp\Test_temp\Test.dgi" -a -h
  81.  
  82. Project
  83. 33
  84. 50
  85. 66
  86. 75
  87. 100
  88.  
  89. Start: 11:58:42 AM
  90. End: 11:58:46 AM
  91. Duration: 00:00:04
  92.  
  93. --------------------------- AviSynth Script ---------------------------
  94.  
  95. LoadPlugin("D:\Utilities\StaxRip\Settings\Plugins\Dual\DGDecNV\DGDecodeNV.dll")
  96. DGSource("D:\Work\tmp\Test_temp\Test.dgi", fieldop=1)
  97.  
  98. ------------------------- Source Script Info -------------------------
  99.  
  100. Width : 720
  101. Height : 480
  102. Frames : 27837
  103. Time : 19:21.035
  104. Framerate : 23.976023 (24000/1001)
  105. Format : YUV420P8
  106.  
  107. ------------------------- Target Script Info -------------------------
  108.  
  109. Width : 720
  110. Height : 480
  111. Frames : 27837
  112. Time : 19:21.035
  113. Framerate : 23.976023 (24000/1001)
  114. Format : YUV420P8
  115.  
  116. ---------------------- Media Info Audio Source 1 ----------------------
  117.  
  118. General
  119. Complete name : D:\Work\tmp\Test_temp\Test T80 2_0ch 48KHz 192Kbps DELAY 0ms.ac3
  120. Format : AC-3
  121. Format/Info : Audio Coding 3
  122. Commercial name : Dolby Digital
  123. File size : 26.6 MiB
  124. Duration : 19 min 20 s
  125. Overall bit rate mode : Constant
  126. Overall bit rate : 192 kb/s
  127.  
  128. Audio
  129. Format : AC-3
  130. Format/Info : Audio Coding 3
  131. Commercial name : Dolby Digital
  132. Duration : 19 min 20 s
  133. Bit rate mode : Constant
  134. Bit rate : 192 kb/s
  135. Channel(s) : 2 channels
  136. Channel layout : L R
  137. Sampling rate : 48.0 kHz
  138. Frame rate : 31.250 FPS (1536 SPF)
  139. Compression mode : Lossy
  140. Stream size : 26.6 MiB (100%)
  141. Service kind : Complete Main
  142.  
  143. ----------------------------- Find Gain 1 -----------------------------
  144.  
  145. ffmpeg N-98395(GCC10.1.0) Patman
  146.  
  147. D:\Utilities\StaxRip\Apps\Encoders\ffmpeg\ffmpeg.exe -i "D:\Work\tmp\Test_temp\Test T80 2_0ch 48KHz 192Kbps DELAY 0ms.ac3" -sn -vn -hide_banner -af volumedetect -f null NUL
  148.  
  149. [ac3 @ 00000234f7389640] Estimating duration from bitrate, this may be inaccurate
  150. Input #0, ac3, from 'D:\Work\tmp\Test_temp\Test T80 2_0ch 48KHz 192Kbps DELAY 0ms.ac3':
  151. Duration: 00:19:20.00, start: 0.000000, bitrate: 192 kb/s
  152. Stream #0:0: Audio: ac3, 48000 Hz, stereo, fltp, 192 kb/s
  153. Stream mapping:
  154. Stream #0:0 -> #0:0 (ac3 (native) -> pcm_s16le (native))
  155. Press [q] to stop, [?] for help
  156. Output #0, null, to 'NUL':
  157. Metadata:
  158. encoder : Lavf58.48.100
  159. Stream #0:0: Audio: pcm_s16le, 48000 Hz, stereo, s16, 1536 kb/s
  160. Metadata:
  161. encoder : Lavc58.94.100 pcm_s16le
  162. video:0kB audio:217500kB subtitle:0kB other streams:0kB global headers:0kB muxing overhead: unknown
  163. [Parsed_volumedetect_0 @ 00000234f8a0f980] n_samples: 111360000
  164. [Parsed_volumedetect_0 @ 00000234f8a0f980] mean_volume: -30.8 dB
  165. [Parsed_volumedetect_0 @ 00000234f8a0f980] max_volume: -9.4 dB
  166. [Parsed_volumedetect_0 @ 00000234f8a0f980] histogram_9db: 10
  167. [Parsed_volumedetect_0 @ 00000234f8a0f980] histogram_10db: 16
  168. [Parsed_volumedetect_0 @ 00000234f8a0f980] histogram_11db: 30
  169. [Parsed_volumedetect_0 @ 00000234f8a0f980] histogram_12db: 175
  170. [Parsed_volumedetect_0 @ 00000234f8a0f980] histogram_13db: 548
  171. [Parsed_volumedetect_0 @ 00000234f8a0f980] histogram_14db: 1973
  172. [Parsed_volumedetect_0 @ 00000234f8a0f980] histogram_15db: 7118
  173. [Parsed_volumedetect_0 @ 00000234f8a0f980] histogram_16db: 29115
  174. [Parsed_volumedetect_0 @ 00000234f8a0f980] histogram_17db: 100425
  175.  
  176. Start: 1:56:02 PM
  177. End: 1:56:04 PM
  178. Duration: 00:00:02
  179.  
  180. ------------------------ Convert AC3 to FLAC 1 ------------------------
  181.  
  182. ffmpeg N-98395(GCC10.1.0) Patman
  183.  
  184. D:\Utilities\StaxRip\Apps\Encoders\ffmpeg\ffmpeg.exe -i "D:\Work\tmp\Test_temp\Test T80 2_0ch 48KHz 192Kbps DELAY 0ms.ac3" -af volume=9.4dB -y -hide_banner -ac 2 "D:\Work\tmp\Test_temp\Test T80 2_0ch 48KHz 192Kbps DELAY 0ms.flac"
  185.  
  186. [ac3 @ 000001cbbc229600] Estimating duration from bitrate, this may be inaccurate
  187. Input #0, ac3, from 'D:\Work\tmp\Test_temp\Test T80 2_0ch 48KHz 192Kbps DELAY 0ms.ac3':
  188. Duration: 00:19:20.00, start: 0.000000, bitrate: 192 kb/s
  189. Stream #0:0: Audio: ac3, 48000 Hz, stereo, fltp, 192 kb/s
  190. Stream mapping:
  191. Stream #0:0 -> #0:0 (ac3 (native) -> flac (native))
  192. Press [q] to stop, [?] for help
  193. [flac @ 000001cbbda394c0] encoding as 24 bits-per-sample
  194. Output #0, flac, to 'D:\Work\tmp\Test_temp\Test T80 2_0ch 48KHz 192Kbps DELAY 0ms.flac':
  195. Metadata:
  196. encoder : Lavf58.48.100
  197. Stream #0:0: Audio: flac, 48000 Hz, stereo, s32 (24 bit), 128 kb/s
  198. Metadata:
  199. encoder : Lavc58.94.100 flac
  200. video:0kB audio:126240kB subtitle:0kB other streams:0kB global headers:0kB muxing overhead: 0.006411%
  201.  
  202. Start: 1:56:04 PM
  203. End: 1:56:11 PM
  204. Duration: 00:00:06
  205.  
  206. General
  207. Complete name : D:\Work\tmp\Test_temp\Test T80 2_0ch 48KHz 192Kbps DELAY 0ms.flac
  208. Format : FLAC
  209. Format/Info : Free Lossless Audio Codec
  210. File size : 123 MiB
  211. Duration : 19 min 20 s
  212. Overall bit rate mode : Variable
  213. Overall bit rate : 892 kb/s
  214. Writing application : Lavf58.48.100
  215.  
  216. Audio
  217. Format : FLAC
  218. Format/Info : Free Lossless Audio Codec
  219. Duration : 19 min 20 s
  220. Bit rate mode : Variable
  221. Bit rate : 892 kb/s
  222. Channel(s) : 2 channels
  223. Channel layout : L R
  224. Sampling rate : 48.0 kHz
  225. Bit depth : 24 bits
  226. Compression mode : Lossless
  227. Stream size : 123 MiB (100%)
  228. Writing library : Lavf58.48.100
  229.  
  230. -------------------------- Audio encoding 1 --------------------------
  231.  
  232. qaac 2.69
  233.  
  234. D:\Utilities\StaxRip\Apps\Audio\qaac\qaac64.exe --tvbr 62 --delay 0.281 "D:\Work\tmp\Test_temp\Test T80 2_0ch 48KHz 192Kbps DELAY 0ms.flac" -o "D:\Work\tmp\Test_temp\Test T80 2_0ch 48KHz 192Kbps DELAY_a1.m4a"
  235.  
  236. qaac 2.69, CoreAudioToolbox 7.10.9.0
  237. Test T80 2_0ch 48KHz 192Kbps DELAY_a1.m4a
  238. AAC-LC Encoder, TVBR q64, Quality 96
  239. 55693488/55693488 samples processed in 0:27.484
  240. Overall bitrate: 63.5137kbps
  241. Optimizing...done
  242.  
  243. Start: 1:56:11 PM
  244. End: 1:56:38 PM
  245. Duration: 00:00:27
  246.  
  247. General
  248. Complete name : D:\Work\tmp\Test_temp\Test T80 2_0ch 48KHz 192Kbps DELAY_a1.m4a
  249. Format : MPEG-4
  250. Format profile : Apple audio with iTunes info
  251. Codec ID : M4A (M4A /mp42/isom)
  252. File size : 9.00 MiB
  253. Duration : 19 min 20 s
  254. Overall bit rate mode : Variable
  255. Overall bit rate : 65.1 kb/s
  256. Encoded date : UTC 2020-07-06 20:56:11
  257. Tagged date : UTC 2020-07-06 20:56:38
  258. Writing application : qaac 2.69, CoreAudioToolbox 7.10.9.0, AAC-LC Encoder, TVBR q64, Quality 96
  259. Encoding Params : (Binary)
  260.  
  261. Audio
  262. ID : 1
  263. Format : AAC LC
  264. Format/Info : Advanced Audio Codec Low Complexity
  265. Codec ID : mp4a-40-2
  266. Duration : 19 min 20 s
  267. Bit rate mode : Variable
  268. Bit rate : 63.5 kb/s
  269. Maximum bit rate : 73.6 kb/s
  270. Channel(s) : 2 channels
  271. Channel layout : L R
  272. Sampling rate : 48.0 kHz
  273. Frame rate : 46.875 FPS (1024 SPF)
  274. Compression mode : Lossy
  275. Stream size : 8.79 MiB (98%)
  276. Encoded date : UTC 2020-07-06 20:56:11
  277. Tagged date : UTC 2020-07-06 20:56:38
  278.  
  279. --------------------------- Video encoding ---------------------------
  280.  
  281. NVEnc 5.09
  282.  
  283. D:\Utilities\StaxRip\Apps\Encoders\NVEnc\NVEncC64.exe --vbrhq 0 --codec h265 --preset quality --vbr-quality 28 --aq --ref 4 --lookahead 32 --sar 10:11 -i D:\Work\tmp\Test_temp\Test.fieldop1.avs -o D:\Work\tmp\Test_temp\Test.fieldop1_out.h265
  284.  
  285. --------------------------------------------------------------------------------
  286. D:\Work\tmp\Test_temp\Test.fieldop1_out.h265
  287. --------------------------------------------------------------------------------
  288. Max B frames are 0 frames.
  289. NVEncC (x64) 5.09 (r1590) by rigaya, Jul 5 2020 13:21:16 (VC 1916/Win/avx2)
  290. OS Version Windows 10 x64 (19041)
  291. CPU Intel Core i5-7300HQ @ 2.50GHz [TB: 3.19GHz] (4C/4T)
  292. GPU #0: GeForce GTX 1060 with Max-Q Design (1280 cores, 1341 MHz)[PCIe3x16][451.48]
  293. NVENC / CUDA NVENC API 9.1, CUDA 11.0, schedule mode: auto
  294. Input Buffers CUDA, 41 frames
  295. Input Info AviSynth+ 3.6.1 r3300(yv12)->nv12 [AVX2], 720x480, 24000/1001 fps
  296. Vpp Filters copyHtoD
  297. Output Info H.265/HEVC main @ Level auto
  298. 720x480p 10:11 23.976fps (24000/1001fps)
  299. Encoder Preset quality
  300. Rate Control VBRHQ
  301. Bitrate 0 kbps (Max: 5760 kbps)
  302. Target Quality 28.00
  303. Initial QP I:20 P:23 B:25
  304. VBV buf size auto
  305. Lookahead on, 32 frames, Adaptive I, B Insert
  306. GOP length 240 frames
  307. B frames 0 frames [ref mode: disabled]
  308. Ref frames 4 frames
  309. AQ on
  310. CU max / min auto / auto
  311. Others mv:auto
  312. encoded 27837 frames, 597.94 fps, 959.21 kbps, 132.76 MB
  313. encode time 0:00:46, CPU: 20.7, GPU: 21.0, VE: 94.6, VD: 24.9, GPUClock: 1657MHz, VEClock: 1483MHz
  314. frame type IDR 174
  315. frame type I 174, total size 2.82 MB
  316. frame type P 27663, total size 129.94 MB
  317.  
  318. Start: 1:56:03 PM
  319. End: 1:56:51 PM
  320. Duration: 00:00:48
  321.  
  322. General
  323. Complete name : D:\Work\tmp\Test_temp\Test.fieldop1_out.h265
  324. Format : HEVC
  325. Format/Info : High Efficiency Video Coding
  326. File size : 133 MiB
  327.  
  328. Video
  329. Format : HEVC
  330. Format/Info : High Efficiency Video Coding
  331. Format profile : Main@L3@Main
  332. Width : 720 pixels
  333. Height : 480 pixels
  334. Display aspect ratio : 4:3
  335. Frame rate : 23.976 (24000/1001) FPS
  336. Color space : YUV
  337. Chroma subsampling : 4:2:0
  338. Bit depth : 8 bits
  339.  
  340. ------------------------------- Muxing -------------------------------
  341.  
  342. MP4Box 1.0.0-rev86(GCC11.0.0) Patman
  343.  
  344. D:\Utilities\StaxRip\Apps\Support\MP4Box\MP4Box.exe -add "D:\Work\tmp\Test_temp\Test.fieldop1_out.h265#video:name=" -add "D:\Work\tmp\Test_temp\Test T80 2_0ch 48KHz 192Kbps DELAY_a1.m4a#audio:lang=eng:name=" -new D:\Work\tmp\Test.fieldop1.mp4
  345.  
  346. Track Importing HEVC - Width 654 Height 480 FPS 24000/1001 SAR 10/11
  347. HEVC Import results: 27837 samples (27841 NALUs) - Slices: 174 I 27663 P 0 B - 0 SEI - 174 IDR
  348. HEVC Max NALU size is 30575 - stream could be optimized by setting nal_length=2
  349. IsoMedia import Test T80 2_0ch 48KHz 192Kbps DELAY_a1.m4a - track ID 1 - Audio (SR 48000 - 2 channels)
  350. Saving D:\Work\tmp\Test.fieldop1.mp4: 0.500 secs Interleaving
  351.  
  352. Start: 1:56:51 PM
  353. End: 1:56:53 PM
  354. Duration: 00:00:02
  355.  
  356. General
  357. Complete name : D:\Work\tmp\Test.fieldop1.mp4
  358. Format : MPEG-4
  359. Format profile : Base Media
  360. Codec ID : iso4 (iso4)
  361. File size : 142 MiB
  362. Duration : 19 min 21 s
  363. Overall bit rate mode : Variable
  364. Overall bit rate : 1 025 kb/s
  365. Encoded date : UTC 2020-07-06 20:56:51
  366. Tagged date : UTC 2020-07-06 20:56:51
  367.  
  368. Video
  369. ID : 1
  370. Format : HEVC
  371. Format/Info : High Efficiency Video Coding
  372. Format profile : Main@L3@Main
  373. Codec ID : hvc1
  374. Codec ID/Info : High Efficiency Video Coding
  375. Duration : 19 min 21 s
  376. Bit rate : 959 kb/s
  377. Maximum bit rate : 1 363 kb/s
  378. Width : 720 pixels
  379. Height : 480 pixels
  380. Display aspect ratio : 4:3
  381. Frame rate mode : Constant
  382. Frame rate : 23.976 (24000/1001) FPS
  383. Color space : YUV
  384. Chroma subsampling : 4:2:0
  385. Bit depth : 8 bits
  386. Bits/(Pixel*Frame) : 0.116
  387. Stream size : 133 MiB (94%)
  388. Encoded date : UTC 2020-07-06 20:56:51
  389. Tagged date : UTC 2020-07-06 20:56:53
  390. Codec configuration box : hvcC
  391.  
  392. Audio
  393. ID : 2
  394. Format : AAC LC
  395. Format/Info : Advanced Audio Codec Low Complexity
  396. Codec ID : mp4a-40-2
  397. Duration : 19 min 20 s
  398. Bit rate mode : Variable
  399. Bit rate : 63.5 kb/s
  400. Maximum bit rate : 72.5 kb/s
  401. Channel(s) : 2 channels
  402. Channel layout : L R
  403. Sampling rate : 48.0 kHz
  404. Frame rate : 46.875 FPS (1024 SPF)
  405. Compression mode : Lossy
  406. Stream size : 8.79 MiB (6%)
  407. Language : English
  408. Encoded date : UTC 2020-07-06 20:56:11
  409. Tagged date : UTC 2020-07-06 20:56:53
  410.  
  411. ---------------------------- Job Complete ----------------------------
  412.  
  413. Start: 1:56:01 PM
  414. End: 1:56:53 PM
  415. Duration: 00:00:52
Advertisement
RAW Paste Data Copied
Advertisement