Guest User

Untitled

a guest
Apr 21st, 2019
80
Never
Not a member of Pastebin yet? Sign Up, it unlocks many cool features!
  1. HandBrake 1.2.2 (2019022300)
  2. OS: Microsoft Windows NT 10.0.17134.0
  3. CPU: Intel(R) Core(TM) i5-7500 CPU @ 3.40GHz
  4. Ram: 8129 MB,
  5. GPU Information:
  6. NVIDIA GeForce GTX 1060 6GB - 25.21.14.1967
  7. Screen: 1920x1080
  8. Temp Dir: C:\Users\bogm\AppData\Local\Temp\
  9. Install Dir: C:\Program Files\HandBrake
  10. Data Dir: C:\Users\bogm\AppData\Roaming\HandBrake
  11.  
  12. -------------------------------------------
  13.  
  14.  
  15. # Starting Encode ...
  16.  
  17. [20:14:08] hb_init: starting libhb thread
  18. [20:14:08] 1 job(s) to process
  19. [20:14:08] json job:
  20. {
  21. "Audio": {
  22. "AudioList": [],
  23. "CopyMask": [
  24. "copy:aac",
  25. "copy:ac3",
  26. "copy:dtshd",
  27. "copy:dts",
  28. "copy:eac3",
  29. "copy:flac",
  30. "copy:mp3",
  31. "copy:truehd"
  32. ],
  33. "FallbackEncoder": "ac3"
  34. },
  35. "Destination": {
  36. "ChapterList": [
  37. {
  38. "Name": "Prologue"
  39. },
  40. {
  41. "Name": "OP"
  42. },
  43. {
  44. "Name": "Part A"
  45. },
  46. {
  47. "Name": "Part B"
  48. },
  49. {
  50. "Name": "ED"
  51. },
  52. {
  53. "Name": "Preview"
  54. }
  55. ],
  56. "ChapterMarkers": true,
  57. "AlignAVStart": false,
  58. "File": "F:\\ENCODES\\E.N.D\\Kiznaiver [BD 1080p][Hi10][Dual-Audio]-E.N.D\\Kiznaiver.S01E10.1080p.BluRay.Dual-Audio.AC3.x265-E.N.D.mkv",
  59. "Mp4Options": {
  60. "IpodAtom": false,
  61. "Mp4Optimize": false
  62. },
  63. "Mux": "mkv"
  64. },
  65. "Filters": {
  66. "FilterList": [
  67. {
  68. "ID": 4,
  69. "Settings": {
  70. "mode": "7"
  71. }
  72. },
  73. {
  74. "ID": 3,
  75. "Settings": {
  76. "block-height": "16",
  77. "block-thresh": "40",
  78. "block-width": "16",
  79. "filter-mode": "2",
  80. "mode": "3",
  81. "motion-thresh": "1",
  82. "spatial-metric": "2",
  83. "spatial-thresh": "1"
  84. }
  85. },
  86. {
  87. "ID": 11,
  88. "Settings": {
  89. "crop-bottom": "0",
  90. "crop-left": "0",
  91. "crop-right": "0",
  92. "crop-top": "0",
  93. "height": "1080",
  94. "width": "1920"
  95. }
  96. },
  97. {
  98. "ID": 6,
  99. "Settings": {
  100. "mode": "1"
  101. }
  102. }
  103. ]
  104. },
  105. "PAR": {
  106. "Num": 1,
  107. "Den": 1
  108. },
  109. "Metadata": {},
  110. "SequenceID": 0,
  111. "Source": {
  112. "Angle": 1,
  113. "Range": {
  114. "Type": "chapter",
  115. "Start": 1,
  116. "End": 6
  117. },
  118. "Title": 1,
  119. "Path": "F:\\[MK] Kiznaiver [BD 1080p][Hi10][Dual-Audio]\\[MK] Kiznaiver - 10 [BD 1080p][Hi10][Dual-Audio][4F82C263].mkv"
  120. },
  121. "Subtitle": {
  122. "Search": {
  123. "Burn": false,
  124. "Default": false,
  125. "Enable": false,
  126. "Forced": false
  127. },
  128. "SubtitleList": [
  129. {
  130. "Burn": false,
  131. "Default": false,
  132. "Forced": false,
  133. "ID": 1,
  134. "Offset": 0,
  135. "Track": 0
  136. },
  137. {
  138. "Burn": false,
  139. "Default": true,
  140. "Forced": false,
  141. "ID": 2,
  142. "Offset": 0,
  143. "Track": 1
  144. }
  145. ]
  146. },
  147. "Video": {
  148. "Encoder": "x265",
  149. "Level": "auto",
  150. "Bitrate": 1700,
  151. "TwoPass": true,
  152. "Turbo": true,
  153. "ColorMatrixCode": 0,
  154. "Options": "strong-intra-smoothing=0:rect=0",
  155. "Preset": "medium",
  156. "Profile": "main",
  157. "QSV": {
  158. "Decode": false,
  159. "AsyncDepth": 0
  160. }
  161. }
  162. }
  163. [20:14:08] CPU: Intel(R) Core(TM) i5-7500 CPU @ 3.40GHz
  164. [20:14:08] - Intel microarchitecture Kaby Lake
  165. [20:14:08] - logical processor count: 4
  166. [20:14:08] Intel Quick Sync Video support: no
  167. [20:14:08] hb_scan: path=F:\[MK] Kiznaiver [BD 1080p][Hi10][Dual-Audio]\[MK] Kiznaiver - 10 [BD 1080p][Hi10][Dual-Audio][4F82C263].mkv, title_index=1
  168. udfread ERROR: ECMA 167 Volume Recognition failed
  169. src/libbluray/disc/disc.c:323: failed opening UDF image F:\[MK] Kiznaiver [BD 1080p][Hi10][Dual-Audio]\[MK] Kiznaiver - 10 [BD 1080p][Hi10][Dual-Audio][4F82C263].mkv
  170. src/libbluray/disc/disc.c:424: error opening file BDMV\index.bdmv
  171. src/libbluray/disc/disc.c:424: error opening file BDMV\BACKUP\index.bdmv
  172. [20:14:08] bd: not a bd - trying as a stream/file instead
  173. libdvdnav: Using dvdnav version 6.0.0
  174. libdvdread: Encrypted DVD support unavailable.
  175. libdvdread:DVDOpenFileUDF:UDFFindFile /VIDEO_TS/VIDEO_TS.IFO failed
  176. libdvdread:DVDOpenFileUDF:UDFFindFile /VIDEO_TS/VIDEO_TS.BUP failed
  177. libdvdread: Can't open file VIDEO_TS.IFO.
  178. libdvdnav: vm: failed to read VIDEO_TS.IFO
  179. [20:14:08] dvd: not a dvd - trying as a stream/file instead
  180. Input #0, matroska,webm, from 'F:\[MK] Kiznaiver [BD 1080p][Hi10][Dual-Audio]\[MK] Kiznaiver - 10 [BD 1080p][Hi10][Dual-Audio][4F82C263].mkv':
  181. Metadata:
  182. title : [MK] Kiznaiver - 10 [BD 1080p][Hi10][Dual-Audio]
  183. encoder : libebml v1.3.5 + libmatroska v1.4.8
  184. creation_time : 2018-04-10T09:39:38.000000Z
  185. Duration: 00:24:02.95, start: 0.000000, bitrate: 9392 kb/s
  186. Chapter #0:0: start 0.000000, end 185.977000
  187. Metadata:
  188. title : Prologue
  189. Chapter #0:1: start 185.977000, end 276.026000
  190. Metadata:
  191. title : OP
  192. Chapter #0:2: start 276.026000, end 745.995000
  193. Metadata:
  194. title : Part A
  195. Chapter #0:3: start 745.995000, end 1334.958000
  196. Metadata:
  197. title : Part B
  198. Chapter #0:4: start 1334.958000, end 1425.924000
  199. Metadata:
  200. title : ED
  201. Chapter #0:5: start 1425.924000, end 1442.945000
  202. Metadata:
  203. title : Preview
  204. Stream #0:0(jpn): Video: h264 (High 10), yuv420p10le(tv, bt709, progressive), 1920x1080 [SAR 1:1 DAR 16:9], 23.98 fps, 23.98 tbr, 1k tbn, 47.95 tbc (default)
  205. Metadata:
  206. title : BD 1080p [Beatrice-Raws]
  207. BPS-eng : 6516781
  208. DURATION-eng : 00:24:02.942000000
  209. NUMBER_OF_FRAMES-eng: 34596
  210. NUMBER_OF_BYTES-eng: 1175417150
  211. _STATISTICS_WRITING_APP-eng: mkvmerge v22.0.0 ('At The End Of The World') 64-bit
  212. _STATISTICS_WRITING_DATE_UTC-eng: 2018-04-10 09:39:38
  213. _STATISTICS_TAGS-eng: BPS DURATION NUMBER_OF_FRAMES NUMBER_OF_BYTES
  214. Stream #0:1(eng): Audio: flac, 48000 Hz, stereo, s32 (24 bit) (default) (forced)
  215. Metadata:
  216. title : 2.0ch FLAC 24bit
  217. BPS-eng : 1424219
  218. DURATION-eng : 00:24:02.945000000
  219. NUMBER_OF_FRAMES-eng: 16910
  220. NUMBER_OF_BYTES-eng: 256883751
  221. _STATISTICS_WRITING_APP-eng: mkvmerge v22.0.0 ('At The End Of The World') 64-bit
  222. _STATISTICS_WRITING_DATE_UTC-eng: 2018-04-10 09:39:38
  223. _STATISTICS_TAGS-eng: BPS DURATION NUMBER_OF_FRAMES NUMBER_OF_BYTES
  224. Stream #0:2(jpn): Audio: flac, 48000 Hz, stereo, s32 (24 bit)
  225. Metadata:
  226. title : 2.0ch FLAC 24bit
  227. BPS-eng : 1438818
  228. DURATION-eng : 00:24:02.945000000
  229. NUMBER_OF_FRAMES-eng: 16910
  230. NUMBER_OF_BYTES-eng: 259517023
  231. _STATISTICS_WRITING_APP-eng: mkvmerge v22.0.0 ('At The End Of The World') 64-bit
  232. _STATISTICS_WRITING_DATE_UTC-eng: 2018-04-10 09:39:38
  233. _STATISTICS_TAGS-eng: BPS DURATION NUMBER_OF_FRAMES NUMBER_OF_BYTES
  234. Stream #0:3(eng): Subtitle: ass (default) (forced)
  235. Metadata:
  236. title : Signs and Songs
  237. BPS-eng : 1905
  238. DURATION-eng : 00:22:38.890000000
  239. NUMBER_OF_FRAMES-eng: 2037
  240. NUMBER_OF_BYTES-eng: 323730
  241. _STATISTICS_WRITING_APP-eng: mkvmerge v22.0.0 ('At The End Of The World') 64-bit
  242. _STATISTICS_WRITING_DATE_UTC-eng: 2018-04-10 09:39:38
  243. _STATISTICS_TAGS-eng: BPS DURATION NUMBER_OF_FRAMES NUMBER_OF_BYTES
  244. Stream #0:4(eng): Subtitle: ass
  245. Metadata:
  246. title : Full Subtitles
  247. BPS-eng : 1906
  248. DURATION-eng : 00:23:58.860000000
  249. NUMBER_OF_FRAMES-eng: 2329
  250. NUMBER_OF_BYTES-eng: 342853
  251. _STATISTICS_WRITING_APP-eng: mkvmerge v22.0.0 ('At The End Of The World') 64-bit
  252. _STATISTICS_WRITING_DATE_UTC-eng: 2018-04-10 09:39:38
  253. _STATISTICS_TAGS-eng: BPS DURATION NUMBER_OF_FRAMES NUMBER_OF_BYTES
  254. Stream #0:5: Attachment: ttf
  255. Metadata:
  256. filename : helveticaneue.ttf
  257. mimetype : application/x-truetype-font
  258. Stream #0:6: Attachment: ttf
  259. Metadata:
  260. filename : helvetica-neue-bold.ttf
  261. mimetype : application/x-truetype-font
  262. Stream #0:7: Attachment: ttf
  263. Metadata:
  264. filename : ITC Avant Garde Gothic LT Condensed Medium.ttf
  265. mimetype : application/x-truetype-font
  266. Stream #0:8: Attachment: ttf
  267. Metadata:
  268. filename : Prototype.ttf
  269. mimetype : application/x-truetype-font
  270. Stream #0:9: Attachment: ttf
  271. Metadata:
  272. filename : SourceSansPro-Bold.ttf
  273. mimetype : application/x-truetype-font
  274. Stream #0:10: Attachment: ttf
  275. Metadata:
  276. filename : SubClearSans-Bold.ttf
  277. mimetype : application/x-truetype-font
  278. Stream #0:11: Attachment: ttf
  279. Metadata:
  280. filename : cubic.ttf
  281. mimetype : application/x-truetype-font
  282. Stream #0:12: Attachment: ttf
  283. Metadata:
  284. filename : CuneiFont_Regular.ttf
  285. mimetype : application/x-truetype-font
  286. Stream #0:13: Attachment: ttf
  287. Metadata:
  288. filename : edosz.ttf
  289. mimetype : application/x-truetype-font
  290. Stream #0:14: Attachment: ttf
  291. Metadata:
  292. filename : FOTSeuratProNStrp-DemiBold.otf
  293. mimetype : application/x-truetype-font
  294. Stream #0:15: Attachment: ttf
  295. Metadata:
  296. filename : FTLTLT.TTF
  297. mimetype : application/x-truetype-font
  298. [20:14:08] scan: decoding previews for title 1
  299. [20:14:08] scan: audio 0x2: flac, rate=48000Hz, bitrate=1 ??? (FLAC) (2.0 ch)
  300. [20:14:08] scan: audio 0x1: flac, rate=48000Hz, bitrate=1 English (FLAC) (2.0 ch)
  301. [20:14:09] scan: 10 previews, 1920x1080, 23.976 fps, autocrop = 0/0/0/0, aspect 16:9, PAR 1:1
  302. [20:14:09] scan: supported video decoders: avcodec qsv
  303. [20:14:09] libhb: scan thread found 1 valid title(s)
  304. [20:14:09] starting job
  305. [20:14:09] decomb filter thread started for segment 0
  306. [20:14:09] decomb filter thread started for segment 1
  307. [20:14:09] mask erode thread started for segment 1
  308. [20:14:09] decomb filter thread started for segment 3
  309. [20:14:09] decomb check thread started for segment 0
  310. [20:14:09] mask dilate thread started for segment 2
  311. [20:14:09] decomb check thread started for segment 2
  312. [20:14:09] yadif thread started for segment 2
  313. [20:14:09] mask filter thread started for segment 0
  314. [20:14:09] mask filter thread started for segment 1
  315. [20:14:09] mask filter thread started for segment 2
  316. [20:14:09] job configuration:
  317. [20:14:09] mask filter thread started for segment 3
  318. [20:14:09] * source
  319. [20:14:09] + F:\[MK] Kiznaiver [BD 1080p][Hi10][Dual-Audio]\[MK] Kiznaiver - 10 [BD 1080p][Hi10][Dual-Audio][4F82C263].mkv
  320. [20:14:09] + title 1, chapter(s) 1 to 6
  321. [20:14:09] + container: matroska,webm
  322. [20:14:09] + data rate: 9392 kbps
  323. [20:14:09] * destination
  324. [20:14:09] mask erode thread started for segment 3
  325. [20:14:09] mask erode thread started for segment 0
  326. [20:14:09] decomb filter thread started for segment 2
  327. [20:14:09] mask erode thread started for segment 2
  328. [20:14:09] mask dilate thread started for segment 0
  329. [20:14:09] + F:\ENCODES\E.N.D\Kiznaiver [BD 1080p][Hi10][Dual-Audio]-E.N.D\Kiznaiver.S01E10.1080p.BluRay.Dual-Audio.AC3.x265-E.N.D.mkv
  330. [20:14:09] + container: Matroska (libavformat)
  331. [20:14:09] + chapter markers
  332. [20:14:09] * video track
  333. [20:14:09] + decoder: h264
  334. [20:14:09] + filters
  335. [20:14:09] mask dilate thread started for segment 1
  336. [20:14:09] + Comb Detect (mode=3:spatial-metric=2:motion-thresh=1:spatial-thresh=1:filter-mode=2:block-thresh=40:block-width=16:block-height=16)
  337. [20:14:09] + Decomb (mode=39)
  338. [20:14:09] + Framerate Shaper (mode=1)
  339. [20:14:09] + frame rate: 23.976 fps -> constant 23.976 fps
  340. [20:14:09] + Crop and Scale (width=1920:height=1080:crop-top=0:crop-bottom=0:crop-left=0:crop-right=0)
  341. [20:14:09] + source: 1920 * 1080, crop (0/0/0/0): 1920 * 1080, scale: 1920 * 1080
  342. [20:14:09] + Output geometry
  343. [20:14:09] + storage dimensions: 1920 x 1080
  344. [20:14:09] + pixel aspect ratio: 1 : 1
  345. [20:14:09] + display dimensions: 1920 x 1080
  346. [20:14:09] + encoder: H.265 (libx265)
  347. [20:14:09] + preset: medium
  348. [20:14:09] + options: strong-intra-smoothing=0:rect=0
  349. [20:14:09] + profile: main
  350. [20:14:09] + bitrate: 1700 kbps, pass: 1
  351. [20:14:09] + fast first pass
  352. [20:14:09] + color profile: 1-1-1
  353. [20:14:09] decomb check thread started for segment 1
  354. [20:14:09] * subtitle track 1, English [SSA] (track 0, id 0x3, Text) -> Passthrough
  355. [20:14:09] * subtitle track 2, English [SSA] (track 1, id 0x4, Text) -> Passthrough, Default
  356. [20:14:09] yadif thread started for segment 0
  357. [20:14:09] mask dilate thread started for segment 3
  358. [20:14:09] yadif thread started for segment 1
  359. [20:14:09] decomb check thread started for segment 3
  360. [20:14:09] yadif thread started for segment 3
  361. [20:14:09] sync: expecting 34596 video frames
  362. x265 [info]: HEVC encoder version 2.9
  363. x265 [info]: build info [Windows][GCC 8.2.0][64 bit] 8bit+10bit+12bit
  364. x265 [info]: using cpu capabilities: MMX2 SSE2Fast LZCNT SSSE3 SSE4.2 AVX FMA3 BMI2 AVX2
  365. x265 [info]: Main profile, Level-4 (Main tier)
  366. x265 [info]: Thread pool created using 4 threads
  367. x265 [info]: Slices : 1
  368. x265 [info]: frame threads / pool features : 2 / wpp(17 rows)
  369. x265 [info]: Coding QT: max CU size, min CU size : 64 / 8
  370. x265 [info]: Residual QT: max TU size, max depth : 32 / 1 inter / 1 intra
  371. x265 [info]: ME / range / subpel / merge : dia / 57 / 2 / 1
  372. x265 [info]: Keyframe min / max / scenecut / bias: 24 / 240 / 40 / 5.00
  373. x265 [info]: Lookahead / bframes / badapt : 20 / 4 / 2
  374. x265 [info]: b-pyramid / weightp / weightb : 1 / 1 / 0
  375. x265 [info]: References / ref-limit cu / depth : 1 / on / on
  376. x265 [info]: AQ: mode / str / qg-size / cu-tree : 1 / 1.0 / 32 / 1
  377. x265 [info]: Rate Control / qCompress : ABR-1700 kbps / 0.60
  378. x265 [info]: tools: rd=2 psy-rd=2.00 early-skip rskip signhide tmvp fast-intra
  379. x265 [info]: tools: lslices=6 deblock sao stats-write
  380. [20:14:09] sync: first pts video is 0
  381. [20:14:09] sync: "Prologue" (1) at frame 1 time 0
  382. [20:14:10] sync: first pts subtitle 0x4 is 184500
  383. [20:14:16] hb_init: starting libhb thread
  384.  
  385. # Starting Scan ...
  386.  
  387. [20:14:16] CPU: Intel(R) Core(TM) i5-7500 CPU @ 3.40GHz
  388. [20:14:16] - Intel microarchitecture Kaby Lake
  389. [20:14:16] - logical processor count: 4
  390. [20:14:16] Intel Quick Sync Video support: no
  391. [20:14:16] hb_scan: path=F:\[MK] Kiznaiver [BD 1080p][Hi10][Dual-Audio]\[MK] Kiznaiver - 11 [BD 1080p][Hi10][Dual-Audio][80ADA0B0].mkv, title_index=0
  392. udfread ERROR: ECMA 167 Volume Recognition failed
  393. src/libbluray/disc/disc.c:323: failed opening UDF image F:\[MK] Kiznaiver [BD 1080p][Hi10][Dual-Audio]\[MK] Kiznaiver - 11 [BD 1080p][Hi10][Dual-Audio][80ADA0B0].mkv
  394. src/libbluray/disc/disc.c:424: error opening file BDMV\index.bdmv
  395. src/libbluray/disc/disc.c:424: error opening file BDMV\BACKUP\index.bdmv
  396. [20:14:16] bd: not a bd - trying as a stream/file instead
  397. libdvdnav: Using dvdnav version 6.0.0
  398. libdvdread: Encrypted DVD support unavailable.
  399. libdvdread:DVDOpenFileUDF:UDFFindFile /VIDEO_TS/VIDEO_TS.IFO failed
  400. libdvdread:DVDOpenFileUDF:UDFFindFile /VIDEO_TS/VIDEO_TS.BUP failed
  401. libdvdread: Can't open file VIDEO_TS.IFO.
  402. libdvdnav: vm: failed to read VIDEO_TS.IFO
  403. [20:14:16] dvd: not a dvd - trying as a stream/file instead
  404. Input #0, matroska,webm, from 'F:\[MK] Kiznaiver [BD 1080p][Hi10][Dual-Audio]\[MK] Kiznaiver - 11 [BD 1080p][Hi10][Dual-Audio][80ADA0B0].mkv':
  405. Metadata:
  406. title : [MK] Kiznaiver - 11 [BD 1080p][Hi10][Dual-Audio]
  407. encoder : libebml v1.3.5 + libmatroska v1.4.8
  408. creation_time : 2018-04-10T09:40:10.000000Z
  409. Duration: 00:24:03.11, start: 0.000000, bitrate: 8525 kb/s
  410. Chapter #0:0: start 0.000000, end 134.008000
  411. Metadata:
  412. title : Prologue
  413. Chapter #0:1: start 134.008000, end 224.015000
  414. Metadata:
  415. title : OP
  416. Chapter #0:2: start 224.015000, end 699.031000
  417. Metadata:
  418. title : Part A
  419. Chapter #0:3: start 699.031000, end 1335.042000
  420. Metadata:
  421. title : Part B
  422. Chapter #0:4: start 1335.042000, end 1426.007000
  423. Metadata:
  424. title : ED
  425. Chapter #0:5: start 1426.007000, end 1443.110000
  426. Metadata:
  427. title : Preview
  428. Stream #0:0(jpn): Video: h264 (High 10), yuv420p10le(tv, bt709, progressive), 1920x1080 [SAR 1:1 DAR 16:9], 23.98 fps, 23.98 tbr, 1k tbn, 47.95 tbc (default)
  429. Metadata:
  430. title : BD 1080p [Beatrice-Raws]
  431. BPS-eng : 5705776
  432. DURATION-eng : 00:24:03.109000000
  433. NUMBER_OF_FRAMES-eng: 34600
  434. NUMBER_OF_BYTES-eng: 1029257113
  435. _STATISTICS_WRITING_APP-eng: mkvmerge v22.0.0 ('At The End Of The World') 64-bit
  436. _STATISTICS_WRITING_DATE_UTC-eng: 2018-04-10 09:40:10
  437. _STATISTICS_TAGS-eng: BPS DURATION NUMBER_OF_FRAMES NUMBER_OF_BYTES
  438. Stream #0:1(eng): Audio: flac, 48000 Hz, stereo, s32 (24 bit) (default) (forced)
  439. Metadata:
  440. title : 2.0ch FLAC 24bit
  441. BPS-eng : 1392950
  442. DURATION-eng : 00:24:03.110000000
  443. NUMBER_OF_FRAMES-eng: 16912
  444. NUMBER_OF_BYTES-eng: 251272606
  445. _STATISTICS_WRITING_APP-eng: mkvmerge v22.0.0 ('At The End Of The World') 64-bit
  446. _STATISTICS_WRITING_DATE_UTC-eng: 2018-04-10 09:40:10
  447. _STATISTICS_TAGS-eng: BPS DURATION NUMBER_OF_FRAMES NUMBER_OF_BYTES
  448. Stream #0:2(jpn): Audio: flac, 48000 Hz, stereo, s32 (24 bit)
  449. Metadata:
  450. title : 2.0ch FLAC 24bit
  451. BPS-eng : 1412639
  452. DURATION-eng : 00:24:03.110000000
  453. NUMBER_OF_FRAMES-eng: 16912
  454. NUMBER_OF_BYTES-eng: 254824203
  455. _STATISTICS_WRITING_APP-eng: mkvmerge v22.0.0 ('At The End Of The World') 64-bit
  456. _STATISTICS_WRITING_DATE_UTC-eng: 2018-04-10 09:40:10
  457. _STATISTICS_TAGS-eng: BPS DURATION NUMBER_OF_FRAMES NUMBER_OF_BYTES
  458. Stream #0:3(eng): Subtitle: ass (default) (forced)
  459. Metadata:
  460. title : Signs and Songs
  461. BPS-eng : 1814
  462. DURATION-eng : 00:21:51.020000000
  463. NUMBER_OF_FRAMES-eng: 1971
  464. NUMBER_OF_BYTES-eng: 297347
  465. _STATISTICS_WRITING_APP-eng: mkvmerge v22.0.0 ('At The End Of The World') 64-bit
  466. _STATISTICS_WRITING_DATE_UTC-eng: 2018-04-10 09:40:10
  467. _STATISTICS_TAGS-eng: BPS DURATION NUMBER_OF_FRAMES NUMBER_OF_BYTES
  468. Stream #0:4(eng): Subtitle: ass
  469. Metadata:
  470. title : Full Subtitles
  471. BPS-eng : 1782
  472. DURATION-eng : 00:23:55.530000000
  473. NUMBER_OF_FRAMES-eng: 2301
  474. NUMBER_OF_BYTES-eng: 319883
  475. _STATISTICS_WRITING_APP-eng: mkvmerge v22.0.0 ('At The End Of The World') 64-bit
  476. _STATISTICS_WRITING_DATE_UTC-eng: 2018-04-10 09:40:10
  477. _STATISTICS_TAGS-eng: BPS DURATION NUMBER_OF_FRAMES NUMBER_OF_BYTES
  478. Stream #0:5: Attachment: ttf
  479. Metadata:
  480. filename : Panton-ExtraBold.otf
  481. mimetype : application/x-truetype-font
  482. Stream #0:6: Attachment: ttf
  483. Metadata:
  484. filename : Prototype.ttf
  485. mimetype : application/x-truetype-font
  486. Stream #0:7: Attachment: ttf
  487. Metadata:
  488. filename : SourceSansPro-Bold.ttf
  489. mimetype : application/x-truetype-font
  490. Stream #0:8: Attachment: ttf
  491. Metadata:
  492. filename : cubic.ttf
  493. mimetype : application/x-truetype-font
  494. Stream #0:9: Attachment: ttf
  495. Metadata:
  496. filename : CuneiFont_Regular.ttf
  497. mimetype : application/x-truetype-font
  498. Stream #0:10: Attachment: ttf
  499. Metadata:
  500. filename : edosz.ttf
  501. mimetype : application/x-truetype-font
  502. Stream #0:11: Attachment: ttf
  503. Metadata:
  504. filename : FTLTLT.TTF
  505. mimetype : application/x-truetype-font
  506. Stream #0:12: Attachment: ttf
  507. Metadata:
  508. filename : helveticaneue.ttf
  509. mimetype : application/x-truetype-font
  510. Stream #0:13: Attachment: ttf
  511. Metadata:
  512. filename : ITC Avant Garde Gothic LT Condensed Medium.ttf
  513. mimetype : application/x-truetype-font
  514. Stream #0:14: Attachment: ttf
  515. Metadata:
  516. filename : LinLibertine_DR.ttf
  517. mimetype : application/x-truetype-font
  518. [20:14:16] scan: decoding previews for title 1
  519. [20:14:16] scan: audio 0x2: flac, rate=48000Hz, bitrate=1 ??? (FLAC) (2.0 ch)
  520. [20:14:16] scan: audio 0x1: flac, rate=48000Hz, bitrate=1 English (FLAC) (2.0 ch)
  521. [20:14:18] scan: 10 previews, 1920x1080, 23.976 fps, autocrop = 0/0/0/0, aspect 16:9, PAR 1:1
  522. [20:14:18] scan: supported video decoders: avcodec qsv
  523. [20:14:18] libhb: scan thread found 1 valid title(s)
  524.  
  525. # Processing Scan Information ...
  526.  
  527.  
  528. # Scan Finished ...
  529.  
  530. [20:15:35] sync: first pts subtitle 0x3 is 7381800
  531. [20:16:51] hb_init: starting libhb thread
  532.  
  533. # Starting Scan ...
  534.  
  535. [20:16:51] CPU: Intel(R) Core(TM) i5-7500 CPU @ 3.40GHz
  536. [20:16:51] - Intel microarchitecture Kaby Lake
  537. [20:16:51] - logical processor count: 4
  538. [20:16:51] Intel Quick Sync Video support: no
  539. [20:16:51] hb_scan: path=F:\[MK] Kiznaiver [BD 1080p][Hi10][Dual-Audio]\[MK] Kiznaiver - 12 [BD 1080p][Hi10][Dual-Audio][9D07E977].mkv, title_index=0
  540. udfread ERROR: ECMA 167 Volume Recognition failed
  541. src/libbluray/disc/disc.c:323: failed opening UDF image F:\[MK] Kiznaiver [BD 1080p][Hi10][Dual-Audio]\[MK] Kiznaiver - 12 [BD 1080p][Hi10][Dual-Audio][9D07E977].mkv
  542. src/libbluray/disc/disc.c:424: error opening file BDMV\index.bdmv
  543. src/libbluray/disc/disc.c:424: error opening file BDMV\BACKUP\index.bdmv
  544. [20:16:51] bd: not a bd - trying as a stream/file instead
  545. libdvdnav: Using dvdnav version 6.0.0
  546. libdvdread: Encrypted DVD support unavailable.
  547. libdvdread:DVDOpenFileUDF:UDFFindFile /VIDEO_TS/VIDEO_TS.IFO failed
  548. libdvdread:DVDOpenFileUDF:UDFFindFile /VIDEO_TS/VIDEO_TS.BUP failed
  549. libdvdread: Can't open file VIDEO_TS.IFO.
  550. libdvdnav: vm: failed to read VIDEO_TS.IFO
  551. [20:16:51] dvd: not a dvd - trying as a stream/file instead
  552. Input #0, matroska,webm, from 'F:\[MK] Kiznaiver [BD 1080p][Hi10][Dual-Audio]\[MK] Kiznaiver - 12 [BD 1080p][Hi10][Dual-Audio][9D07E977].mkv':
  553. Metadata:
  554. title : [MK] Kiznaiver - 12 [BD 1080p][Hi10][Dual-Audio]
  555. encoder : libebml v1.3.5 + libmatroska v1.4.8
  556. creation_time : 2018-04-10T09:40:36.000000Z
  557. Duration: 00:24:02.11, start: 0.000000, bitrate: 8734 kb/s
  558. Chapter #0:0: start 0.000000, end 47.047000
  559. Metadata:
  560. title : Prologue
  561. Chapter #0:1: start 47.047000, end 573.990000
  562. Metadata:
  563. title : Part A
  564. Chapter #0:2: start 573.990000, end 1442.110000
  565. Metadata:
  566. title : Part B
  567. Stream #0:0(jpn): Video: h264 (High 10), yuv420p10le(tv, bt709, progressive), 1920x1080 [SAR 1:1 DAR 16:9], 23.98 fps, 23.98 tbr, 1k tbn, 47.95 tbc (default)
  568. Metadata:
  569. title : BD 1080p [Beatrice-Raws]
  570. BPS-eng : 5782249
  571. DURATION-eng : 00:24:02.108000000
  572. NUMBER_OF_FRAMES-eng: 34576
  573. NUMBER_OF_BYTES-eng: 1042328564
  574. _STATISTICS_WRITING_APP-eng: mkvmerge v22.0.0 ('At The End Of The World') 64-bit
  575. _STATISTICS_WRITING_DATE_UTC-eng: 2018-04-10 09:40:36
  576. _STATISTICS_TAGS-eng: BPS DURATION NUMBER_OF_FRAMES NUMBER_OF_BYTES
  577. Stream #0:1(eng): Audio: flac, 48000 Hz, stereo, s32 (24 bit) (default) (forced)
  578. Metadata:
  579. title : 2.0ch FLAC 24bit
  580. BPS-eng : 1454193
  581. DURATION-eng : 00:24:02.110000000
  582. NUMBER_OF_FRAMES-eng: 16900
  583. NUMBER_OF_BYTES-eng: 262138453
  584. _STATISTICS_WRITING_APP-eng: mkvmerge v22.0.0 ('At The End Of The World') 64-bit
  585. _STATISTICS_WRITING_DATE_UTC-eng: 2018-04-10 09:40:36
  586. _STATISTICS_TAGS-eng: BPS DURATION NUMBER_OF_FRAMES NUMBER_OF_BYTES
  587. Stream #0:2(jpn): Audio: flac, 48000 Hz, stereo, s32 (24 bit)
  588. Metadata:
  589. title : 2.0ch FLAC 24bit
  590. BPS-eng : 1478786
  591. DURATION-eng : 00:24:02.110000000
  592. NUMBER_OF_FRAMES-eng: 16900
  593. NUMBER_OF_BYTES-eng: 266571675
  594. _STATISTICS_WRITING_APP-eng: mkvmerge v22.0.0 ('At The End Of The World') 64-bit
  595. _STATISTICS_WRITING_DATE_UTC-eng: 2018-04-10 09:40:36
  596. _STATISTICS_TAGS-eng: BPS DURATION NUMBER_OF_FRAMES NUMBER_OF_BYTES
  597. Stream #0:3(eng): Subtitle: ass (default) (forced)
  598. Metadata:
  599. title : Signs and Songs
  600. BPS-eng : 716
  601. DURATION-eng : 00:23:07.380000000
  602. NUMBER_OF_FRAMES-eng: 519
  603. NUMBER_OF_BYTES-eng: 124314
  604. _STATISTICS_WRITING_APP-eng: mkvmerge v22.0.0 ('At The End Of The World') 64-bit
  605. _STATISTICS_WRITING_DATE_UTC-eng: 2018-04-10 09:40:36
  606. _STATISTICS_TAGS-eng: BPS DURATION NUMBER_OF_FRAMES NUMBER_OF_BYTES
  607. Stream #0:4(eng): Subtitle: ass
  608. Metadata:
  609. title : Full Subtitles
  610. BPS-eng : 837
  611. DURATION-eng : 00:23:57.520000000
  612. NUMBER_OF_FRAMES-eng: 911
  613. NUMBER_OF_BYTES-eng: 150418
  614. _STATISTICS_WRITING_APP-eng: mkvmerge v22.0.0 ('At The End Of The World') 64-bit
  615. _STATISTICS_WRITING_DATE_UTC-eng: 2018-04-10 09:40:36
  616. _STATISTICS_TAGS-eng: BPS DURATION NUMBER_OF_FRAMES NUMBER_OF_BYTES
  617. Stream #0:5: Attachment: ttf
  618. Metadata:
  619. filename : Prototype.ttf
  620. mimetype : application/x-truetype-font
  621. Stream #0:6: Attachment: ttf
  622. Metadata:
  623. filename : SourceSansPro-Bold.ttf
  624. mimetype : application/x-truetype-font
  625. Stream #0:7: Attachment: ttf
  626. Metadata:
  627. filename : SourceSansPro-BoldIt.ttf
  628. mimetype : application/x-truetype-font
  629. Stream #0:8: Attachment: ttf
  630. Metadata:
  631. filename : SubClearSans-Bold.ttf
  632. mimetype : application/x-truetype-font
  633. Stream #0:9: Attachment: ttf
  634. Metadata:
  635. filename : Brianne_s_hand.ttf
  636. mimetype : application/x-truetype-font
  637. Stream #0:10: Attachment: ttf
  638. Metadata:
  639. filename : CuneiFont_Regular.ttf
  640. mimetype : application/x-truetype-font
  641. Stream #0:11: Attachment: ttf
  642. Metadata:
  643. filename : FTLTLT.TTF
  644. mimetype : application/x-truetype-font
  645. Stream #0:12: Attachment: ttf
  646. Metadata:
  647. filename : helveticaneue.ttf
  648. mimetype : application/x-truetype-font
  649. Stream #0:13: Attachment: ttf
  650. Metadata:
  651. filename : ITC Avant Garde Gothic LT Condensed Medium_0.ttf
  652. mimetype : application/x-truetype-font
  653. Stream #0:14: Attachment: ttf
  654. Metadata:
  655. filename : IwaOMinPro-Hd-Fate.ttf
  656. mimetype : application/x-truetype-font
  657. Stream #0:15: Attachment: ttf
  658. Metadata:
  659. filename : OranienbaumErodedBoldv2.ttf
  660. mimetype : application/x-truetype-font
  661. [20:16:51] scan: decoding previews for title 1
  662. [20:16:51] scan: audio 0x2: flac, rate=48000Hz, bitrate=1 ??? (FLAC) (2.0 ch)
  663. [20:16:51] scan: audio 0x1: flac, rate=48000Hz, bitrate=1 English (FLAC) (2.0 ch)
  664. [20:16:53] scan: 10 previews, 1920x1080, 23.976 fps, autocrop = 0/0/0/0, aspect 16:9, PAR 1:1
  665. [20:16:53] scan: supported video decoders: avcodec qsv
  666. [20:16:53] libhb: scan thread found 1 valid title(s)
  667.  
  668. # Processing Scan Information ...
  669.  
  670.  
  671. # Scan Finished ...
  672.  
  673. [20:17:36] sync: "OP" (2) at frame 4460 time 16737971
  674. [20:17:43] sync: subtitle 0x3 duration <= 0, PTS 17054100
  675. [20:17:43] sync: subtitle 0x4 duration <= 0, PTS 17054100
  676. [20:17:56] sync: subtitle 0x3 duration <= 0, PTS 17664300
  677. [20:17:56] sync: subtitle 0x4 duration <= 0, PTS 17664300
  678. [20:18:14] sync: subtitle 0x3 duration <= 0, PTS 18278100
  679. [20:18:14] sync: subtitle 0x4 duration <= 0, PTS 18278100
  680. [20:18:27] sync: subtitle 0x3 duration <= 0, PTS 18855900
  681. [20:18:27] sync: subtitle 0x4 duration <= 0, PTS 18855900
  682. [20:18:49] sync: subtitle 0x3 duration <= 0, PTS 20041200
  683. [20:18:49] sync: subtitle 0x4 duration <= 0, PTS 20041200
  684. [20:19:29] sync: subtitle 0x3 duration <= 0, PTS 21954600
  685. [20:19:29] sync: subtitle 0x4 duration <= 0, PTS 21954600
  686. [20:19:44] sync: subtitle 0x3 duration <= 0, PTS 22555800
  687. [20:19:44] sync: subtitle 0x4 duration <= 0, PTS 22555800
  688. [20:20:00] sync: subtitle 0x3 duration <= 0, PTS 23182200
  689. [20:20:00] sync: subtitle 0x4 duration <= 0, PTS 23182200
  690. [20:20:14] sync: subtitle 0x3 duration <= 0, PTS 23785200
  691. [20:20:14] sync: subtitle 0x4 duration <= 0, PTS 23785200
  692. [20:20:33] sync: "Part A" (3) at frame 6619 time 24842317
  693. [20:29:29] sync: "Part B" (4) at frame 17887 time 67139572
  694. [20:41:02] sync: "ED" (5) at frame 32012 time 120161291
  695. [20:42:50] sync: "Preview" (6) at frame 34189 time 128333205
  696. [20:43:14] reader: done. 1 scr changes
  697. [20:43:20] work: average encoding speed for job is 19.780853 fps
  698. [20:43:20] comb detect: heavy 1722 | light 1438 | uncombed 31436 | total 34596
  699. [20:43:20] decomb: deinterlaced 1722 | blended 1438 | unfiltered 31436 | total 34596
  700. [20:43:20] vfr: 34596 frames output, 0 dropped and 0 duped for CFR/PFR
  701. [20:43:20] vfr: lost time: 0 (0 frames)
  702. [20:43:20] vfr: gained time: 0 (0 frames) (0 not accounted for)
  703. [20:43:20] h264-decoder done: 34596 frames, 0 decoder errors
  704. [20:43:20] sync: got 34596 frames, 34596 expected
  705. [20:43:20] sync: framerate min 23.981 fps, max 23.981 fps, avg 23.976 fps
  706. x265 [info]: frame I: 423, Avg QP:15.57 kb/s: 26878.97
  707. x265 [info]: frame P: 9561, Avg QP:19.37 kb/s: 3690.96
  708. x265 [info]: frame B: 24612, Avg QP:25.65 kb/s: 533.56
  709. x265 [info]: Weighted P-Frames: Y:1.2% UV:1.1%
  710. x265 [info]: consecutive B-frames: 18.9% 9.7% 9.7% 29.3% 32.4%
  711. encoded 34596 frames in 1751.63s (19.75 fps), 1728.26 kb/s, Avg QP:23.79
  712. [20:43:20] starting job
  713. [20:43:20] decomb filter thread started for segment 1
  714. [20:43:20] decomb filter thread started for segment 0
  715. [20:43:20] decomb filter thread started for segment 2
  716. [20:43:20] decomb check thread started for segment 0
  717. [20:43:20] decomb filter thread started for segment 3
  718. [20:43:20] decomb check thread started for segment 1
  719. [20:43:20] decomb check thread started for segment 2
  720. [20:43:20] decomb check thread started for segment 3
  721. [20:43:20] mask filter thread started for segment 0
  722. [20:43:20] mask filter thread started for segment 1
  723. [20:43:20] mask filter thread started for segment 2
  724. [20:43:20] mask filter thread started for segment 3
  725. [20:43:20] mask erode thread started for segment 0
  726. [20:43:20] mask erode thread started for segment 1
  727. [20:43:20] mask erode thread started for segment 2
  728. [20:43:20] mask erode thread started for segment 3
  729. [20:43:20] job configuration:
  730. [20:43:20] * source
  731. [20:43:20] + F:\[MK] Kiznaiver [BD 1080p][Hi10][Dual-Audio]\[MK] Kiznaiver - 10 [BD 1080p][Hi10][Dual-Audio][4F82C263].mkv
  732. [20:43:20] + title 1, chapter(s) 1 to 6
  733. [20:43:20] + container: matroska,webm
  734. [20:43:20] + data rate: 9392 kbps
  735. [20:43:20] * destination
  736. [20:43:20] mask dilate thread started for segment 2
  737. [20:43:20] mask dilate thread started for segment 0
  738. [20:43:20] mask dilate thread started for segment 3
  739. [20:43:20] mask dilate thread started for segment 1
  740. [20:43:20] + F:\ENCODES\E.N.D\Kiznaiver [BD 1080p][Hi10][Dual-Audio]-E.N.D\Kiznaiver.S01E10.1080p.BluRay.Dual-Audio.AC3.x265-E.N.D.mkv
  741. [20:43:20] + container: Matroska (libavformat)
  742. [20:43:20] + chapter markers
  743. [20:43:20] * video track
  744. [20:43:20] + decoder: h264
  745. [20:43:20] + filters
  746. [20:43:20] yadif thread started for segment 0
  747. [20:43:20] + Comb Detect (mode=3:spatial-metric=2:motion-thresh=1:spatial-thresh=1:filter-mode=2:block-thresh=40:block-width=16:block-height=16)
  748. [20:43:20] yadif thread started for segment 1
  749. [20:43:20] + Decomb (mode=39)
  750. [20:43:20] + Framerate Shaper (mode=1)
  751. [20:43:20] + frame rate: 23.976 fps -> constant 23.976 fps
  752. [20:43:20] yadif thread started for segment 2
  753. [20:43:20] + Crop and Scale (width=1920:height=1080:crop-top=0:crop-bottom=0:crop-left=0:crop-right=0)
  754. [20:43:20] + source: 1920 * 1080, crop (0/0/0/0): 1920 * 1080, scale: 1920 * 1080
  755. [20:43:20] + Output geometry
  756. [20:43:20] + storage dimensions: 1920 x 1080
  757. [20:43:20] + pixel aspect ratio: 1 : 1
  758. [20:43:20] + display dimensions: 1920 x 1080
  759. [20:43:20] + encoder: H.265 (libx265)
  760. [20:43:20] + preset: medium
  761. [20:43:20] yadif thread started for segment 3
  762. [20:43:20] + options: strong-intra-smoothing=0:rect=0
  763. [20:43:20] + profile: main
  764. [20:43:20] + bitrate: 1700 kbps, pass: 2
  765. [20:43:20] + color profile: 1-1-1
  766. [20:43:20] * subtitle track 1, English [SSA] (track 0, id 0x3, Text) -> Passthrough
  767. [20:43:20] * subtitle track 2, English [SSA] (track 1, id 0x4, Text) -> Passthrough, Default
  768. [20:43:20] sync: expecting 34596 video frames
  769. x265 [info]: HEVC encoder version 2.9
  770. x265 [info]: build info [Windows][GCC 8.2.0][64 bit] 8bit+10bit+12bit
  771. x265 [info]: using cpu capabilities: MMX2 SSE2Fast LZCNT SSSE3 SSE4.2 AVX FMA3 BMI2 AVX2
  772. x265 [info]: Main profile, Level-4 (Main tier)
  773. x265 [info]: Thread pool created using 4 threads
  774. x265 [info]: Slices : 1
  775. x265 [info]: frame threads / pool features : 2 / wpp(17 rows)
  776. x265 [info]: Coding QT: max CU size, min CU size : 64 / 8
  777. x265 [info]: Residual QT: max TU size, max depth : 32 / 1 inter / 1 intra
  778. x265 [info]: ME / range / subpel / merge : hex / 57 / 2 / 2
  779. x265 [info]: Keyframe min / max / scenecut / bias: 24 / 240 / 40 / 5.00
  780. x265 [info]: Lookahead / bframes / badapt : 20 / 4 / 2
  781. x265 [info]: b-pyramid / weightp / weightb : 1 / 1 / 0
  782. x265 [info]: References / ref-limit cu / depth : 3 / on / on
  783. x265 [info]: AQ: mode / str / qg-size / cu-tree : 1 / 1.0 / 32 / 1
  784. x265 [info]: Rate Control / qCompress : ABR-1700 kbps / 0.60
  785. x265 [info]: tools: rd=3 psy-rd=2.00 rskip signhide tmvp lslices=6 deblock sao
  786. x265 [info]: tools: stats-read
  787. [20:43:22] sync: first pts video is 0
  788. [20:43:22] sync: "Prologue" (1) at frame 1 time 0
  789. [20:43:23] sync: first pts subtitle 0x4 is 184500
  790. [20:44:50] sync: first pts subtitle 0x3 is 7381800
  791. [20:46:54] sync: "OP" (2) at frame 4460 time 16737971
  792. [20:47:06] sync: subtitle 0x3 duration <= 0, PTS 17054100
  793. [20:47:06] sync: subtitle 0x4 duration <= 0, PTS 17054100
  794. [20:47:24] sync: subtitle 0x3 duration <= 0, PTS 17664300
  795. [20:47:24] sync: subtitle 0x4 duration <= 0, PTS 17664300
  796. [20:47:50] sync: subtitle 0x3 duration <= 0, PTS 18278100
  797. [20:47:50] sync: subtitle 0x4 duration <= 0, PTS 18278100
  798. [20:48:14] sync: subtitle 0x3 duration <= 0, PTS 18855900
  799. [20:48:14] sync: subtitle 0x4 duration <= 0, PTS 18855900
  800. [20:48:53] sync: subtitle 0x3 duration <= 0, PTS 20041200
  801. [20:48:53] sync: subtitle 0x4 duration <= 0, PTS 20041200
  802. [20:49:58] sync: subtitle 0x3 duration <= 0, PTS 21954600
  803. [20:49:58] sync: subtitle 0x4 duration <= 0, PTS 21954600
  804. [20:50:22] sync: subtitle 0x3 duration <= 0, PTS 22555800
  805. [20:50:22] sync: subtitle 0x4 duration <= 0, PTS 22555800
  806. [20:50:47] sync: subtitle 0x3 duration <= 0, PTS 23182200
  807. [20:50:47] sync: subtitle 0x4 duration <= 0, PTS 23182200
  808. [20:51:11] sync: subtitle 0x3 duration <= 0, PTS 23785200
  809. [20:51:11] sync: subtitle 0x4 duration <= 0, PTS 23785200
  810. [20:51:45] sync: "Part A" (3) at frame 6619 time 24842317
  811. [21:00:59] sync: "Part B" (4) at frame 17887 time 67139572
  812. [21:13:06] sync: "ED" (5) at frame 32012 time 120161291
  813. [21:15:07] sync: "Preview" (6) at frame 34189 time 128333205
  814. [21:15:37] reader: done. 1 scr changes
  815. [21:15:48] work: average encoding speed for job is 17.828756 fps
  816. [21:15:48] comb detect: heavy 1722 | light 1438 | uncombed 31436 | total 34596
  817. [21:15:48] decomb: deinterlaced 1722 | blended 1438 | unfiltered 31436 | total 34596
  818. [21:15:48] vfr: 34596 frames output, 0 dropped and 0 duped for CFR/PFR
  819. [21:15:48] vfr: lost time: 0 (0 frames)
  820. [21:15:48] vfr: gained time: 0 (0 frames) (0 not accounted for)
  821. [21:15:48] h264-decoder done: 34596 frames, 0 decoder errors
  822. [21:15:48] sync: got 34596 frames, 34596 expected
  823. [21:15:48] sync: framerate min 23.981 fps, max 23.981 fps, avg 23.976 fps
  824. x265 [info]: frame I: 423, Avg QP:14.07 kb/s: 28488.27
  825. x265 [info]: frame P: 9561, Avg QP:20.23 kb/s: 3347.72
  826. x265 [info]: frame B: 24612, Avg QP:25.84 kb/s: 599.55
  827. x265 [info]: Weighted P-Frames: Y:1.2% UV:1.0%
  828. x265 [info]: consecutive B-frames: 18.9% 9.7% 9.7% 29.3% 32.4%
  829. encoded 34596 frames in 1946.43s (17.77 fps), 1700.03 kb/s, Avg QP:24.14
  830. [21:15:49] mux: track 0, 34596 frames, 306768798 bytes, 1700.80 kbps, fifo 4096
  831. [21:15:49] mux: track 1, 2028 frames, 324421 bytes, 1.80 kbps, fifo 512
  832. [21:15:49] mux: track 2, 2320 frames, 343836 bytes, 1.91 kbps, fifo 512
  833. [21:15:49] libhb: work result = 0
  834.  
  835. # Encode Completed ...
RAW Paste Data