Secasa

Untitled

Jul 18th, 2015
35
Never
Not a member of Pastebin yet? Sign Up, it unlocks many cool features!
  1. Format : Matroska
  2. Format version : Version 4 / Version 2
  3. File size : 3.15 GiB
  4. Duration : 1h 11mn
  5. Overall bit rate : 6 312 Kbps
  6. Encoded date : UTC 2015-07-18 09:13:06
  7. Writing application : mkvmerge v8.1.0 ('Psychedelic Postcard') 64bit
  8. Writing library : libebml v1.3.1 + libmatroska v1.4.2
  9. DURATION : 01:11:20.320000000
  10. NUMBER_OF_FRAMES : 133760
  11. NUMBER_OF_BYTES : 205455360
  12. _STATISTICS_WRITING_APP : mkvmerge v8.1.0 ('Psychedelic Postcard') 64bit
  13. _STATISTICS_WRITING_DATE_UTC : 2015-07-18 09:13:06
  14. _STATISTICS_TAGS : BPS DURATION NUMBER_OF_FRAMES NUMBER_OF_BYTES
  15.  
  16. Video
  17. ID : 1
  18. Format : AVC
  19. Format/Info : Advanced Video Codec
  20. Format profile : High@L3.1
  21. Format settings, CABAC : Yes
  22. Format settings, ReFrames : 3 frames
  23. Codec ID : V_MPEG4/ISO/AVC
  24. Duration : 1h 11mn
  25. Bit rate : 5 802 Kbps
  26. Width : 1 280 pixels
  27. Height : 720 pixels
  28. Display aspect ratio : 16:9
  29. Frame rate mode : Constant
  30. Frame rate : 25.000 fps
  31. Color space : YUV
  32. Chroma subsampling : 4:2:0
  33. Bit depth : 8 bits
  34. Scan type : Progressive
  35. Bits/(Pixel*Frame) : 0.252
  36. Stream size : 2.89 GiB (92%)
  37. Writing library : x264 core 130 r2273 b3065e6
  38. Encoding settings : cabac=1 / ref=4 / deblock=1:-1:-1 / analyse=0x3:0x113 / me=hex / subme=9 / psy=1 / psy_rd=1,00:0,15 / mixed_ref=1 / me_range=16 / chroma_me=1 / trellis=2 / 8x8dct=1 / cqm=0 / deadzone=21,11 / fast_pskip=1 / chroma_qp_offset=-3 / threads=12 / lookahead_threads=1 / sliced_threads=0 / nr=0 / decimate=1 / interlaced=0 / bluray_compat=0 / constrained_intra=0 / bframes=4 / b_pyramid=1 / b_adapt=2 / b_bias=0 / direct=1 / weightb=1 / open_gop=0 / weightp=1 / keyint=250 / keyint_min=25 / scenecut=40 / intra_refresh=0 / rc_lookahead=40 / rc=crf / mbtree=1 / crf=18,0 / qcomp=0,60 / qpmin=0 / qpmax=69 / qpstep=4 / ip_ratio=1,40 / aq=1:1,00
  39. Language : English
  40. Default : Yes
  41. Forced : No
  42. Color range : Limited
  43. Color primaries : BT.709
  44. Transfer characteristics : BT.709
  45. Matrix coefficients : BT.709
  46.  
  47. Audio
  48. ID : 2
  49. Format : AC-3
  50. Format/Info : Audio Coding 3
  51. Mode extension : CM (complete main)
  52. Format settings, Endianness : Big
  53. Codec ID : A_AC3
  54. Duration : 1h 11mn
  55. Bit rate mode : Constant
  56. Bit rate : 384 Kbps
  57. Channel(s) : 6 channels
  58. Channel positions : Front: L C R, Side: L R, LFE
  59. Sampling rate : 48.0 KHz
  60. Bit depth : 16 bits
  61. Compression mode : Lossy
  62. Stream size : 196 MiB (6%)
  63. Title : AC3 Castellano
  64. Language : Spanish
  65. Default : Yes
  66. Forced : No
RAW Paste Data