SHARE
TWEET

Untitled

Secasa Jul 14th, 2017 6 Never
Not a member of Pastebin yet? Sign Up, it unlocks many cool features!
  1. Format                                   : Matroska
  2. Format version                           : Version 4 / Version 2
  3. File size                                : 3.23 GiB
  4. Duration                                 : 1h 42mn
  5. Overall bit rate                         : 4 522 Kbps
  6. Encoded date                             : UTC 2013-10-27 18:27:01
  7. Writing application                      : mkvmerge v6.5.0 ('Isn't she lovely') built on Oct 19 2013 21:03:40
  8. Writing library                          : libebml v1.3.0 + libmatroska v1.4.1
  9.  
  10. Video
  11. ID                                       : 1
  12. Format                                   : AVC
  13. Format/Info                              : Advanced Video Codec
  14. Format profile                           : Main@L3.1
  15. Format settings, CABAC                   : No
  16. Format settings, ReFrames                : 2 frames
  17. Codec ID                                 : V_MPEG4/ISO/AVC
  18. Duration                                 : 1h 42mn
  19. Bit rate                                 : 4 048 Kbps
  20. Width                                    : 964 pixels
  21. Height                                   : 720 pixels
  22. Display aspect ratio                     : 4:3
  23. Frame rate mode                          : Constant
  24. Frame rate                               : 23.976 fps
  25. Color space                              : YUV
  26. Chroma subsampling                       : 4:2:0
  27. Bit depth                                : 8 bits
  28. Scan type                                : Progressive
  29. Bits/(Pixel*Frame)                       : 0.243
  30. Stream size                              : 2.89 GiB (90%)
  31. Language                                 : English
  32. Default                                  : Yes
  33. Forced                                   : No
  34. Color primaries                          : BT.709
  35. Transfer characteristics                 : BT.709
  36. Matrix coefficients                      : BT.709
  37.  
  38. Audio #1
  39. ID                                       : 2
  40. Format                                   : AC-3
  41. Format/Info                              : Audio Coding 3
  42. Mode extension                           : CM (complete main)
  43. Format settings, Endianness              : Big
  44. Codec ID                                 : A_AC3
  45. Duration                                 : 1h 42mn
  46. Bit rate mode                            : Constant
  47. Bit rate                                 : 192 Kbps
  48. Channel count                            : 2 channels
  49. Channel positions                        : Front: L R
  50. Sampling rate                            : 48.0 KHz
  51. Bit depth                                : 16 bits
  52. Compression mode                         : Lossy
  53. Stream size                              : 140 MiB (4%)
  54. Title                                    : AC3 English
  55. Language                                 : English
  56. Default                                  : No
  57. Forced                                   : No
  58.  
  59. Audio #2
  60. ID                                       : 3
  61. Format                                   : AC-3
  62. Format/Info                              : Audio Coding 3
  63. Mode extension                           : CM (complete main)
  64. Format settings, Endianness              : Big
  65. Codec ID                                 : A_AC3
  66. Duration                                 : 1h 42mn
  67. Bit rate mode                            : Constant
  68. Bit rate                                 : 192 Kbps
  69. Channel count                            : 2 channels
  70. Channel positions                        : Front: L R
  71. Sampling rate                            : 48.0 KHz
  72. Bit depth                                : 16 bits
  73. Compression mode                         : Lossy
  74. Stream size                              : 140 MiB (4%)
  75. Title                                    : AC3 Spanish
  76. Language                                 : Spanish
  77. Default                                  : Yes
  78. Forced                                   : No
  79.  
  80. Text #1
  81. ID                                       : 4
  82. Format                                   : UTF-8
  83. Codec ID                                 : S_TEXT/UTF8
  84. Codec ID/Info                            : UTF-8 Plain Text
  85. Title                                    : Forzados
  86. Language                                 : Spanish
  87. Default                                  : Yes
  88. Forced                                   : Yes
  89.  
  90. Text #2
  91. ID                                       : 5
  92. Format                                   : UTF-8
  93. Codec ID                                 : S_TEXT/UTF8
  94. Codec ID/Info                            : UTF-8 Plain Text
  95. Language                                 : Spanish
  96. Default                                  : No
  97. Forced                                   : No
  98.  
  99. Text #3
  100. ID                                       : 6
  101. Format                                   : UTF-8
  102. Codec ID                                 : S_TEXT/UTF8
  103. Codec ID/Info                            : UTF-8 Plain Text
  104. Language                                 : English
  105. Default                                  : No
  106. Forced                                   : No
  107.  
  108. Menu
  109. 00:00:00.000                             : en:1
  110. 00:09:13.000                             : en:2
  111. 00:17:28.000                             : en:3
  112. 00:27:47.000                             : en:4
  113. 00:33:57.000                             : en:5
  114. 00:43:29.000                             : en:6
  115. 00:53:24.000                             : en:7
  116. 01:03:27.000                             : en:8
  117. 01:12:32.000                             : en:9
  118. 01:21:13.000                             : en:10
  119. 01:32:17.000                             : en:11
RAW Paste Data
Top