SHARE
TWEET

Color.of.Night.1994.DC.1080p.BluRay.Remux.AVC.DTS-HD.MA.5.1-PmP

a guest Jun 13th, 2019 23 Never
Not a member of Pastebin yet? Sign Up, it unlocks many cool features!
  1. General
  2. Complete name                            : Color.of.Night.1994.DC.1080p.BluRay.Remux.AVC.DTS-HD.MA.5.1-PmP.mkv
  3. Format                                   : Matroska
  4. Format version                           : Version 4
  5. File size                                : 21.7 GiB
  6. Duration                                 : 2 h 19 min
  7. Overall bit rate mode                    : Variable
  8. Overall bit rate                         : 22.3 Mb/s
  9. Encoded date                             : UTC 2019-06-05 03:51:38
  10. Writing application                      : mkvmerge v31.0.0 ('Dolores In A Shoestand') 64-bit
  11. Writing library                          : libebml v1.3.6 + libmatroska v1.4.9
  12.  
  13. Video
  14. ID                                       : 1
  15. Format                                   : AVC
  16. Format/Info                              : Advanced Video Codec
  17. Format profile                           : High@L4.1
  18. Format settings                          : CABAC / 4 Ref Frames
  19. Format settings, CABAC                   : Yes
  20. Format settings, Reference frames        : 4 frames
  21. Format settings, GOP                     : M=3, N=24
  22. Codec ID                                 : V_MPEG4/ISO/AVC
  23. Duration                                 : 2 h 19 min
  24. Bit rate mode                            : Variable
  25. Bit rate                                 : 19.0 Mb/s
  26. Maximum bit rate                         : 25.0 Mb/s
  27. Width                                    : 1 920 pixels
  28. Height                                   : 1 080 pixels
  29. Display aspect ratio                     : 16:9
  30. Frame rate mode                          : Constant
  31. Frame rate                               : 23.976 (24000/1001) FPS
  32. Standard                                 : NTSC
  33. Color space                              : YUV
  34. Chroma subsampling                       : 4:2:0
  35. Bit depth                                : 8 bits
  36. Scan type                                : Progressive
  37. Bits/(Pixel*Frame)                       : 0.382
  38. Stream size                              : 18.5 GiB (85%)
  39. Title                                    : MPEG-4 AVC Video / 19000 kbps / 1080p / 23.976 fps / 16:9 / High Profile 4.1
  40. Language                                 : English
  41. Default                                  : Yes
  42. Forced                                   : No
  43. Color range                              : Limited
  44. Color primaries                          : BT.709
  45. Transfer characteristics                 : BT.709
  46. Matrix coefficients                      : BT.709
  47.  
  48. Audio #1
  49. ID                                       : 2
  50. Format                                   : FLAC
  51. Format/Info                              : Free Lossless Audio Codec
  52. Codec ID                                 : A_FLAC
  53. Duration                                 : 2 h 19 min
  54. Bit rate mode                            : Variable
  55. Bit rate                                 : 1 263 kb/s
  56. Channel(s)                               : 2 channels
  57. Channel layout                           : L R
  58. Sampling rate                            : 48.0 kHz
  59. Frame rate                               : 11.719 FPS (4096 SPF)
  60. Bit depth                                : 24 bits
  61. Compression mode                         : Lossless
  62. Stream size                              : 1.23 GiB (6%)
  63. Title                                    : Original Stereo / FLAC Audio / 2.0 / 48 kHz / 1263 kbps / 24-bit
  64. Writing library                          : libFLAC 1.2.1 (UTC 2007-09-17)
  65. Language                                 : English
  66. Default                                  : Yes
  67. Forced                                   : No
  68.  
  69. Audio #2
  70. ID                                       : 3
  71. Format                                   : DTS XLL
  72. Format/Info                              : Digital Theater Systems
  73. Commercial name                          : DTS-HD Master Audio
  74. Codec ID                                 : A_DTS
  75. Duration                                 : 2 h 19 min
  76. Bit rate mode                            : Variable
  77. Bit rate                                 : 1 754 kb/s
  78. Channel(s)                               : 6 channels
  79. Channel layout                           : C L R Ls Rs LFE
  80. Sampling rate                            : 48.0 kHz
  81. Frame rate                               : 93.750 FPS (512 SPF)
  82. Bit depth                                : 16 bits
  83. Compression mode                         : Lossless
  84. Stream size                              : 1.71 GiB (8%)
  85. Title                                    : Surround Remix / DTS-HD Master Audio / 5.1 / 48 kHz / 1752 kbps / 16-bit
  86. Language                                 : English
  87. Default                                  : No
  88. Forced                                   : No
  89.  
  90. Audio #3
  91. ID                                       : 4
  92. Format                                   : AC-3
  93. Format/Info                              : Audio Coding 3
  94. Commercial name                          : Dolby Digital
  95. Codec ID                                 : A_AC3
  96. Duration                                 : 2 h 19 min
  97. Bit rate mode                            : Constant
  98. Bit rate                                 : 192 kb/s
  99. Channel(s)                               : 2 channels
  100. Channel layout                           : L R
  101. Sampling rate                            : 48.0 kHz
  102. Frame rate                               : 31.250 FPS (1536 SPF)
  103. Bit depth                                : 16 bits
  104. Compression mode                         : Lossy
  105. Stream size                              : 191 MiB (1%)
  106. Title                                    : Commentary by director Richard Rush, moderated by filmmaker Elijah Drenner
  107. Language                                 : English
  108. Service kind                             : Complete Main
  109. Default                                  : No
  110. Forced                                   : No
  111.  
  112. Text #1
  113. ID                                       : 5
  114. Format                                   : PGS
  115. Codec ID                                 : S_HDMV/PGS
  116. Codec ID/Info                            : Picture based subtitle format used on BDs/HD-DVDs
  117. Duration                                 : 2 h 17 min
  118. Bit rate                                 : 28.2 kb/s
  119. Count of elements                        : 3013
  120. Stream size                              : 27.8 MiB (0%)
  121. Language                                 : English
  122. Default                                  : No
  123. Forced                                   : No
  124.  
  125. Text #2
  126. ID                                       : 6
  127. Format                                   : PGS
  128. Codec ID                                 : S_HDMV/PGS
  129. Codec ID/Info                            : Picture based subtitle format used on BDs/HD-DVDs
  130. Duration                                 : 2 h 18 min
  131. Bit rate                                 : 54.5 kb/s
  132. Count of elements                        : 4594
  133. Stream size                              : 54.0 MiB (0%)
  134. Title                                    : SDH
  135. Language                                 : English
  136. Default                                  : No
  137. Forced                                   : No
  138.  
  139. Menu
  140. 00:00:00.000                             : en:Chapter 1
  141. 00:08:27.423                             : en:Chapter 2
  142. 00:17:53.154                             : en:Chapter 3
  143. 00:29:09.706                             : en:Chapter 4
  144. 00:37:52.936                             : en:Chapter 5
  145. 00:46:50.015                             : en:Chapter 6
  146. 00:56:37.435                             : en:Chapter 7
  147. 01:04:18.020                             : en:Chapter 8
  148. 01:16:06.978                             : en:Chapter 9
  149. 01:29:03.420                             : en:Chapter 10
  150. 01:52:58.646                             : en:Chapter 11
  151. 02:04:57.322                             : en:Chapter 12
RAW Paste Data
We use cookies for various purposes including analytics. By continuing to use Pastebin, you agree to our use of cookies as described in the Cookies Policy. OK, I Understand
 
Top