SHARE
TWEET

Untitled

mft39anton Sep 15th, 2018 82 Never
Not a member of Pastebin yet? Sign Up, it unlocks many cool features!
  1. Disc Title:     LAZZARO FELICE 18.BD.DDNCREW
  2. Disc Size:      27,062,440,200 bytes
  3. Protection:     AACS
  4. BD-Java:        No
  5. BDInfo:         0.5.8
  6.  
  7. Notes:          
  8.  
  9. BDINFO HOME:
  10.   Cinema Squid
  11.     http://www.cinemasquid.com/blu-ray/tools/bdinfo
  12.  
  13. INCLUDES FORUMS REPORT FOR:
  14.   AVS Forum Blu-ray Audio and Video Specifications Thread
  15.     http://www.avsforum.com/avs-vb/showthread.php?t=1155731
  16.  
  17.  
  18. ********************
  19. PLAYLIST: 00000.MPLS
  20. ********************
  21.  
  22. <--- BEGIN FORUMS PASTE --->
  23. [code]
  24.                                                                                                                 Total   Video                                            
  25. Title                                                           Codec   Length  Movie Size      Disc Size       Bitrate Bitrate Main Audio Track                          Secondary Audio Track
  26. -----                                                           ------  ------- --------------  --------------  ------- ------- ------------------                        ---------------------
  27. 00000.MPLS                                                      AVC     2:07:38 24,801,564,672  27,062,440,200  25.91   19.99   DTS-HD Master 5.1 2127Kbps (48kHz/16-bit) LPCM 2.0 2304Kbps (48kHz/24-bit)
  28. [/code]
  29.  
  30. [code]
  31.  
  32. DISC INFO:
  33.  
  34. Disc Title:     LAZZARO FELICE 18.BD.DDNCREW
  35. Disc Size:      27,062,440,200 bytes
  36. Protection:     AACS
  37. BD-Java:        No
  38. BDInfo:         0.5.8
  39.  
  40. PLAYLIST REPORT:
  41.  
  42. Name:                   00000.MPLS
  43. Length:                 2:07:38.692 (h:m:s.ms)
  44. Size:                   24,801,564,672 bytes
  45. Total Bitrate:          25.91 Mbps
  46.  
  47. VIDEO:
  48.  
  49. Codec                   Bitrate             Description    
  50. -----                   -------             -----------    
  51. MPEG-4 AVC Video        19986 kbps          1080p / 23.976 fps / 16:9 / High Profile 4.1
  52.  
  53. AUDIO:
  54.  
  55. Codec                           Language        Bitrate         Description    
  56. -----                           --------        -------         -----------    
  57. DTS-HD Master Audio             Italian         2127 kbps       5.1 / 48 kHz / 2127 kbps / 16-bit (DTS Core: 5.1 / 48 kHz / 1509 kbps / 16-bit)
  58. LPCM Audio                      Italian         2304 kbps       2.0 / 48 kHz / 2304 kbps / 24-bit
  59.  
  60. SUBTITLES:
  61.  
  62. Codec                           Language        Bitrate         Description    
  63. -----                           --------        -------         -----------    
  64. Presentation Graphics           Italian         30.607 kbps                    
  65. Presentation Graphics           English         26.999 kbps                    
  66.  
  67. FILES:
  68.  
  69. Name            Time In         Length          Size            Total Bitrate  
  70. ----            -------         ------          ----            -------------  
  71. 00000.M2TS      0:00:00.000     2:07:38.692     24,801,564,672  25,907          
  72.  
  73. CHAPTERS:
  74.  
  75. Number          Time In         Length          Avg Video Rate  Max 1-Sec Rate  Max 1-Sec Time  Max 5-Sec Rate  Max 5-Sec Time  Max 10Sec Rate  Max 10Sec Time  Avg Frame Size  Max Frame Size  Max Frame Time  
  76. ------          -------         ------          --------------  --------------  --------------  --------------  --------------  --------------  --------------  --------------  --------------  --------------  
  77. 1               0:00:00.000     0:09:30.152     17,569 kbps     31,000 kbps     00:03:58.863    26,272 kbps     00:03:56.361    24,355 kbps     00:03:51.356    91,591 bytes    495,909 bytes   00:00:56.306    
  78. 2               0:09:30.152     0:11:45.996     23,182 kbps     42,574 kbps     00:10:30.755    36,132 kbps     00:10:11.652    33,392 kbps     00:10:09.233    120,859 bytes   477,819 bytes   00:10:39.972    
  79. 3               0:21:16.149     0:06:48.407     19,103 kbps     28,660 kbps     00:26:46.104    25,098 kbps     00:23:32.285    24,356 kbps     00:23:32.244    99,596 bytes    377,138 bytes   00:23:30.909    
  80. 4               0:28:04.557     0:21:17.401     21,052 kbps     43,790 kbps     00:33:18.746    40,637 kbps     00:28:42.512    37,831 kbps     00:33:13.074    109,754 bytes   587,716 bytes   00:28:49.769    
  81. 5               0:49:21.959     0:08:35.097     20,221 kbps     37,636 kbps     00:50:50.672    35,623 kbps     00:50:59.556    33,760 kbps     00:50:54.593    105,421 bytes   520,998 bytes   00:57:32.824    
  82. 6               0:57:57.056     0:07:45.089     20,007 kbps     40,389 kbps     01:03:31.390    38,163 kbps     01:03:31.432    30,689 kbps     01:04:11.889    104,307 bytes   468,168 bytes   01:04:11.931    
  83. 7               1:05:42.146     0:10:35.968     20,666 kbps     37,994 kbps     01:15:10.422    33,871 kbps     01:11:12.643    32,711 kbps     01:11:11.767    107,743 bytes   452,070 bytes   01:11:49.221    
  84. 8               1:16:18.115     0:07:13.015     19,471 kbps     37,566 kbps     01:19:32.851    36,239 kbps     01:19:32.768    33,270 kbps     01:19:29.389    101,515 bytes   355,079 bytes   01:17:28.727    
  85. 9               1:23:31.131     0:10:31.839     21,797 kbps     37,646 kbps     01:29:13.348    35,035 kbps     01:29:09.344    32,040 kbps     01:30:54.699    113,641 bytes   461,202 bytes   01:29:04.672    
  86. 10              1:34:02.970     0:10:15.990     17,915 kbps     32,426 kbps     01:34:32.917    28,528 kbps     01:39:04.063    25,879 kbps     01:39:00.476    93,400 bytes    409,902 bytes   01:39:04.688    
  87. 11              1:44:18.961     0:07:27.655     19,419 kbps     30,888 kbps     01:47:14.970    27,915 kbps     01:44:33.517    26,792 kbps     01:44:28.929    101,240 bytes   351,725 bytes   01:46:57.786    
  88. 12              1:51:46.616     0:15:52.076     18,056 kbps     35,791 kbps     02:01:02.213    31,051 kbps     02:01:33.452    29,967 kbps     02:01:52.888    94,141 bytes    331,981 bytes   02:07:10.789    
  89.  
  90. STREAM DIAGNOSTICS:
  91.  
  92. File            PID             Type            Codec           Language                Seconds                 Bitrate                 Bytes           Packets        
  93. ----            ---             ----            -----           --------                --------------          --------------          -------------   -----          
  94. 00000.M2TS      4113 (0x1011)   0x1B            AVC                                     7658.568                19,986                  19,132,890,758  104,090,734    
  95. 00000.M2TS      4352 (0x1100)   0x86            DTS-HD MA       ita (Italian)           7658.568                2,127                   2,035,851,716   12,254,918      
  96. 00000.M2TS      4353 (0x1101)   0x80            LPCM            ita (Italian)           7658.568                2,310                   2,211,831,116   12,253,912      
  97. 00000.M2TS      4608 (0x1200)   0x90            PGS             ita (Italian)           7658.568                31                      29,300,916      168,226        
  98. 00000.M2TS      4609 (0x1201)   0x90            PGS             eng (English)           7658.568                27                      25,846,743      150,426        
  99.  
  100. [/code]
  101. <---- END FORUMS PASTE ---->
  102.  
  103. QUICK SUMMARY:
  104.  
  105. Disc Title: LAZZARO FELICE 18.BD.DDNCREW
  106. Disc Size: 27,062,440,200 bytes
  107. Protection: AACS
  108. BD-Java: No
  109. Playlist: 00000.MPLS
  110. Size: 24,801,564,672 bytes
  111. Length: 2:07:38.692
  112. Total Bitrate: 25.91 Mbps
  113. Video: MPEG-4 AVC Video / 19986 kbps / 1080p / 23.976 fps / 16:9 / High Profile 4.1
  114. Audio: Italian / DTS-HD Master Audio / 5.1 / 48 kHz / 2127 kbps / 16-bit (DTS Core: 5.1 / 48 kHz / 1509 kbps / 16-bit)
  115. Audio: Italian / LPCM Audio / 2.0 / 48 kHz / 2304 kbps / 24-bit
  116. Subtitle: Italian / 30.607 kbps
  117. Subtitle: English / 26.999 kbps
  118.  
  119.  
  120. ********************
  121. PLAYLIST: 00002.MPLS
  122. ********************
  123.  
  124. <--- BEGIN FORUMS PASTE --->
  125. [code]
  126.                                                                                                                 Total   Video                                            
  127. Title                                                           Codec   Length  Movie Size      Disc Size       Bitrate Bitrate Main Audio Track                          Secondary Audio Track
  128. -----                                                           ------  ------- --------------  --------------  ------- ------- ------------------                        ---------------------
  129. 00002.MPLS                                                      AVC     0:05:25 950,857,728     27,062,440,200  23.40   20.00   LPCM 2.0 2304Kbps (48kHz/24-bit)          
  130. [/code]
  131.  
  132. [code]
  133.  
  134. DISC INFO:
  135.  
  136. Disc Title:     LAZZARO FELICE 18.BD.DDNCREW
  137. Disc Size:      27,062,440,200 bytes
  138. Protection:     AACS
  139. BD-Java:        No
  140. BDInfo:         0.5.8
  141.  
  142. PLAYLIST REPORT:
  143.  
  144. Name:                   00002.MPLS
  145. Length:                 0:05:25.116 (h:m:s.ms)
  146. Size:                   950,857,728 bytes
  147. Total Bitrate:          23.40 Mbps
  148.  
  149. VIDEO:
  150.  
  151. Codec                   Bitrate             Description    
  152. -----                   -------             -----------    
  153. MPEG-4 AVC Video        19997 kbps          1080p / 23.976 fps / 16:9 / High Profile 4.1
  154.  
  155. AUDIO:
  156.  
  157. Codec                           Language        Bitrate         Description    
  158. -----                           --------        -------         -----------    
  159. LPCM Audio                      Italian         2304 kbps       2.0 / 48 kHz / 2304 kbps / 24-bit
  160.  
  161. FILES:
  162.  
  163. Name            Time In         Length          Size            Total Bitrate  
  164. ----            -------         ------          ----            -------------  
  165. 00001.M2TS      0:00:00.000     0:04:38.903     815,745,024     23,399          
  166. 00002.M2TS      0:04:38.903     0:00:46.212     135,112,704     23,390          
  167.  
  168. CHAPTERS:
  169.  
  170. Number          Time In         Length          Avg Video Rate  Max 1-Sec Rate  Max 1-Sec Time  Max 5-Sec Rate  Max 5-Sec Time  Max 10Sec Rate  Max 10Sec Time  Avg Frame Size  Max Frame Size  Max Frame Time  
  171. ------          -------         ------          --------------  --------------  --------------  --------------  --------------  --------------  --------------  --------------  --------------  --------------  
  172. 1               0:00:00.000     0:05:25.116     19,997 kbps     38,663 kbps     00:02:20.014    32,910 kbps     00:00:27.068    30,911 kbps     00:00:27.235    104,256 bytes   510,081 bytes   00:00:27.277    
  173.  
  174. STREAM DIAGNOSTICS:
  175.  
  176. File            PID             Type            Codec           Language                Seconds                 Bitrate                 Bytes           Packets        
  177. ----            ---             ----            -----           --------                --------------          --------------          -------------   -----          
  178. 00001.M2TS      4113 (0x1011)   0x1B            AVC                                     278.820                 20,004                  697,202,966     3,793,063      
  179. 00001.M2TS      4352 (0x1100)   0x80            LPCM            ita (Italian)           278.820                 2,311                   80,547,764      446,248        
  180. 00002.M2TS      4113 (0x1011)   0x1B            AVC                                     46.088                  20,044                  115,471,684     628,212        
  181. 00002.M2TS      4352 (0x1100)   0x80            LPCM            ita (Italian)           46.088                  2,317                   13,345,448      73,936          
  182.  
  183. [/code]
  184. <---- END FORUMS PASTE ---->
  185.  
  186. QUICK SUMMARY:
  187.  
  188. Disc Title: LAZZARO FELICE 18.BD.DDNCREW
  189. Disc Size: 27,062,440,200 bytes
  190. Protection: AACS
  191. BD-Java: No
  192. Playlist: 00002.MPLS
  193. Size: 950,857,728 bytes
  194. Length: 0:05:25.116
  195. Total Bitrate: 23.40 Mbps
  196. Video: MPEG-4 AVC Video / 19997 kbps / 1080p / 23.976 fps / 16:9 / High Profile 4.1
  197. Audio: Italian / LPCM Audio / 2.0 / 48 kHz / 2304 kbps / 24-bit
  198.  
  199.  
  200. ********************
  201. PLAYLIST: 00001.MPLS
  202. ********************
  203.  
  204. <--- BEGIN FORUMS PASTE --->
  205. [code]
  206.                                                                                                                 Total   Video                                            
  207. Title                                                           Codec   Length  Movie Size      Disc Size       Bitrate Bitrate Main Audio Track                          Secondary Audio Track
  208. -----                                                           ------  ------- --------------  --------------  ------- ------- ------------------                        ---------------------
  209. 00001.MPLS                                                      AVC     0:04:04 694,886,400     27,062,440,200  22.76   19.98   LPCM 2.0 1536Kbps (48kHz/16-bit)          
  210. [/code]
  211.  
  212. [code]
  213.  
  214. DISC INFO:
  215.  
  216. Disc Title:     LAZZARO FELICE 18.BD.DDNCREW
  217. Disc Size:      27,062,440,200 bytes
  218. Protection:     AACS
  219. BD-Java:        No
  220. BDInfo:         0.5.8
  221.  
  222. PLAYLIST REPORT:
  223.  
  224. Name:                   00001.MPLS
  225. Length:                 0:04:04.202 (h:m:s.ms)
  226. Size:                   694,886,400 bytes
  227. Total Bitrate:          22.76 Mbps
  228.  
  229. VIDEO:
  230.  
  231. Codec                   Bitrate             Description    
  232. -----                   -------             -----------    
  233. MPEG-4 AVC Video        19979 kbps          1080p / 23.976 fps / 16:9 / High Profile 4.1
  234.  
  235. AUDIO:
  236.  
  237. Codec                           Language        Bitrate         Description    
  238. -----                           --------        -------         -----------    
  239. LPCM Audio                      Italian         1536 kbps       2.0 / 48 kHz / 1536 kbps / 16-bit
  240.  
  241. FILES:
  242.  
  243. Name            Time In         Length          Size            Total Bitrate  
  244. ----            -------         ------          ----            -------------  
  245. 00011.M2TS      0:00:00.000     0:01:04.689     184,123,392     22,770          
  246. 00012.M2TS      0:01:04.689     0:01:00.852     172,929,024     22,734          
  247. 00013.M2TS      0:02:05.542     0:00:54.763     155,891,712     22,773          
  248. 00014.M2TS      0:03:00.305     0:01:03.897     181,942,272     22,779          
  249.  
  250. CHAPTERS:
  251.  
  252. Number          Time In         Length          Avg Video Rate  Max 1-Sec Rate  Max 1-Sec Time  Max 5-Sec Rate  Max 5-Sec Time  Max 10Sec Rate  Max 10Sec Time  Avg Frame Size  Max Frame Size  Max Frame Time  
  253. ------          -------         ------          --------------  --------------  --------------  --------------  --------------  --------------  --------------  --------------  --------------  --------------  
  254. 1               0:00:00.000     0:04:04.202     19,979 kbps     33,464 kbps     00:01:12.947    29,548 kbps     00:01:10.987    28,960 kbps     00:01:11.029    104,161 bytes   386,616 bytes   00:02:05.708    
  255.  
  256. STREAM DIAGNOSTICS:
  257.  
  258. File            PID             Type            Codec           Language                Seconds                 Bitrate                 Bytes           Packets        
  259. ----            ---             ----            -----           --------                --------------          --------------          -------------   -----          
  260. 00011.M2TS      4113 (0x1011)   0x1B            AVC                                     64.523                  20,036                  161,600,006     879,154        
  261. 00011.M2TS      4352 (0x1100)   0x80            LPCM            ita (Italian)           64.523                  1,546                   12,472,232      77,628          
  262. 00012.M2TS      4113 (0x1011)   0x1B            AVC                                     60.769                  19,978                  151,754,441     825,598        
  263. 00012.M2TS      4352 (0x1100)   0x80            LPCM            ita (Italian)           60.769                  1,545                   11,732,844      73,026          
  264. 00013.M2TS      4113 (0x1011)   0x1B            AVC                                     54.596                  20,048                  136,819,565     744,367        
  265. 00013.M2TS      4352 (0x1100)   0x80            LPCM            ita (Italian)           54.596                  1,547                   10,558,692      65,718          
  266. 00014.M2TS      4113 (0x1011)   0x1B            AVC                                     63.730                  20,045                  159,688,084     868,763        
  267. 00014.M2TS      4352 (0x1100)   0x80            LPCM            ita (Italian)           63.730                  1,547                   12,319,920      76,680          
  268.  
  269. [/code]
  270. <---- END FORUMS PASTE ---->
  271.  
  272. QUICK SUMMARY:
  273.  
  274. Disc Title: LAZZARO FELICE 18.BD.DDNCREW
  275. Disc Size: 27,062,440,200 bytes
  276. Protection: AACS
  277. BD-Java: No
  278. Playlist: 00001.MPLS
  279. Size: 694,886,400 bytes
  280. Length: 0:04:04.202
  281. Total Bitrate: 22.76 Mbps
  282. Video: MPEG-4 AVC Video / 19979 kbps / 1080p / 23.976 fps / 16:9 / High Profile 4.1
  283. Audio: Italian / LPCM Audio / 2.0 / 48 kHz / 1536 kbps / 16-bit
  284.  
  285.  
  286. ********************
  287. PLAYLIST: 00004.MPLS
  288. ********************
  289.  
  290. <--- BEGIN FORUMS PASTE --->
  291. [code]
  292.                                                                                                                 Total   Video                                            
  293. Title                                                           Codec   Length  Movie Size      Disc Size       Bitrate Bitrate Main Audio Track                          Secondary Audio Track
  294. -----                                                           ------  ------- --------------  --------------  ------- ------- ------------------                        ---------------------
  295. 00004.MPLS                                                      AVC     0:03:49 144,654,336     27,062,440,200  5.04    3.01    LPCM 2.0 1536Kbps (48kHz/16-bit)          
  296. [/code]
  297.  
  298. [code]
  299.  
  300. DISC INFO:
  301.  
  302. Disc Title:     LAZZARO FELICE 18.BD.DDNCREW
  303. Disc Size:      27,062,440,200 bytes
  304. Protection:     AACS
  305. BD-Java:        No
  306. BDInfo:         0.5.8
  307.  
  308. PLAYLIST REPORT:
  309.  
  310. Name:                   00004.MPLS
  311. Length:                 0:03:49.395 (h:m:s.ms)
  312. Size:                   144,654,336 bytes
  313. Total Bitrate:          5.04 Mbps
  314.  
  315. VIDEO:
  316.  
  317. Codec                   Bitrate             Description    
  318. -----                   -------             -----------    
  319. MPEG-4 AVC Video        3006 kbps           1080p / 23.976 fps / 16:9 / High Profile 4.1
  320.  
  321. AUDIO:
  322.  
  323. Codec                           Language        Bitrate         Description    
  324. -----                           --------        -------         -----------    
  325. LPCM Audio                      Italian         1536 kbps       2.0 / 48 kHz / 1536 kbps / 16-bit
  326.  
  327. FILES:
  328.  
  329. Name            Time In         Length          Size            Total Bitrate  
  330. ----            -------         ------          ----            -------------  
  331. 00015.M2TS      0:00:00.000     0:03:49.395     144,654,336     5,045          
  332.  
  333. CHAPTERS:
  334.  
  335. Number          Time In         Length          Avg Video Rate  Max 1-Sec Rate  Max 1-Sec Time  Max 5-Sec Rate  Max 5-Sec Time  Max 10Sec Rate  Max 10Sec Time  Avg Frame Size  Max Frame Size  Max Frame Time  
  336. ------          -------         ------          --------------  --------------  --------------  --------------  --------------  --------------  --------------  --------------  --------------  --------------  
  337. 1               0:00:00.000     0:03:49.395     3,006 kbps      7,229 kbps      00:00:01.084    4,599 kbps      00:00:00.041    3,868 kbps      00:00:00.041    15,674 bytes    400,039 bytes   00:00:02.001    
  338.  
  339. STREAM DIAGNOSTICS:
  340.  
  341. File            PID             Type            Codec           Language                Seconds                 Bitrate                 Bytes           Packets        
  342. ----            ---             ----            -----           --------                --------------          --------------          -------------   -----          
  343. 00015.M2TS      4113 (0x1011)   0x1B            AVC                                     229.312                 3,008                   86,209,069      470,468        
  344. 00015.M2TS      4352 (0x1100)   0x80            LPCM            ita (Italian)           229.312                 1,543                   44,222,536      275,244        
  345.  
  346. [/code]
  347. <---- END FORUMS PASTE ---->
  348.  
  349. QUICK SUMMARY:
  350.  
  351. Disc Title: LAZZARO FELICE 18.BD.DDNCREW
  352. Disc Size: 27,062,440,200 bytes
  353. Protection: AACS
  354. BD-Java: No
  355. Playlist: 00004.MPLS
  356. Size: 144,654,336 bytes
  357. Length: 0:03:49.395
  358. Total Bitrate: 5.04 Mbps
  359. Video: MPEG-4 AVC Video / 3006 kbps / 1080p / 23.976 fps / 16:9 / High Profile 4.1
  360. Audio: Italian / LPCM Audio / 2.0 / 48 kHz / 1536 kbps / 16-bit
  361.  
  362.  
  363. ********************
  364. PLAYLIST: 00003.MPLS
  365. ********************
  366.  
  367. <--- BEGIN FORUMS PASTE --->
  368. [code]
  369.                                                                                                                 Total   Video                                            
  370. Title                                                           Codec   Length  Movie Size      Disc Size       Bitrate Bitrate Main Audio Track                          Secondary Audio Track
  371. -----                                                           ------  ------- --------------  --------------  ------- ------- ------------------                        ---------------------
  372. 00003.MPLS                                                      AVC     0:01:48 318,062,592     27,062,440,200  23.38   19.98   LPCM 2.0 2304Kbps (48kHz/24-bit)          
  373. [/code]
  374.  
  375. [code]
  376.  
  377. DISC INFO:
  378.  
  379. Disc Title:     LAZZARO FELICE 18.BD.DDNCREW
  380. Disc Size:      27,062,440,200 bytes
  381. Protection:     AACS
  382. BD-Java:        No
  383. BDInfo:         0.5.8
  384.  
  385. PLAYLIST REPORT:
  386.  
  387. Name:                   00003.MPLS
  388. Length:                 0:01:48.817 (h:m:s.ms)
  389. Size:                   318,062,592 bytes
  390. Total Bitrate:          23.38 Mbps
  391.  
  392. VIDEO:
  393.  
  394. Codec                   Bitrate             Description    
  395. -----                   -------             -----------    
  396. MPEG-4 AVC Video        19984 kbps          1080p / 23.976 fps / 16:9 / High Profile 4.1
  397.  
  398. AUDIO:
  399.  
  400. Codec                           Language        Bitrate         Description    
  401. -----                           --------        -------         -----------    
  402. LPCM Audio                      Italian         2304 kbps       2.0 / 48 kHz / 2304 kbps / 24-bit
  403.  
  404. FILES:
  405.  
  406. Name            Time In         Length          Size            Total Bitrate  
  407. ----            -------         ------          ----            -------------  
  408. 00003.M2TS      0:00:00.000     0:01:48.817     318,062,592     23,383          
  409.  
  410. CHAPTERS:
  411.  
  412. Number          Time In         Length          Avg Video Rate  Max 1-Sec Rate  Max 1-Sec Time  Max 5-Sec Rate  Max 5-Sec Time  Max 10Sec Rate  Max 10Sec Time  Avg Frame Size  Max Frame Size  Max Frame Time  
  413. ------          -------         ------          --------------  --------------  --------------  --------------  --------------  --------------  --------------  --------------  --------------  --------------  
  414. 1               0:00:00.000     0:01:48.817     19,984 kbps     29,201 kbps     00:00:01.292    27,656 kbps     00:00:01.835    24,855 kbps     00:00:00.500    104,185 bytes   257,294 bytes   00:00:48.298    
  415.  
  416. STREAM DIAGNOSTICS:
  417.  
  418. File            PID             Type            Codec           Language                Seconds                 Bitrate                 Bytes           Packets        
  419. ----            ---             ----            -----           --------                --------------          --------------          -------------   -----          
  420. 00003.M2TS      4113 (0x1011)   0x1B            AVC                                     108.692                 20,007                  271,819,148     1,478,789      
  421. 00003.M2TS      4352 (0x1100)   0x80            LPCM            ita (Italian)           108.692                 2,313                   31,427,216      174,112        
  422.  
  423. [/code]
  424. <---- END FORUMS PASTE ---->
  425.  
  426. QUICK SUMMARY:
  427.  
  428. Disc Title: LAZZARO FELICE 18.BD.DDNCREW
  429. Disc Size: 27,062,440,200 bytes
  430. Protection: AACS
  431. BD-Java: No
  432. Playlist: 00003.MPLS
  433. Size: 318,062,592 bytes
  434. Length: 0:01:48.817
  435. Total Bitrate: 23.38 Mbps
  436. Video: MPEG-4 AVC Video / 19984 kbps / 1080p / 23.976 fps / 16:9 / High Profile 4.1
  437. Audio: Italian / LPCM Audio / 2.0 / 48 kHz / 2304 kbps / 24-bit
  438.  
  439.  
  440. ********************
  441. PLAYLIST: 00005.MPLS
  442. ********************
  443.  
  444. <--- BEGIN FORUMS PASTE --->
  445. [code]
  446.                                                                                                                 Total   Video                                            
  447. Title                                                           Codec   Length  Movie Size      Disc Size       Bitrate Bitrate Main Audio Track                          Secondary Audio Track
  448. -----                                                           ------  ------- --------------  --------------  ------- ------- ------------------                        ---------------------
  449. 00005.MPLS                                                      AVC     0:01:02 43,622,400      27,062,440,200  5.58    3.00    LPCM 2.0 2304Kbps (48kHz/24-bit)          
  450. [/code]
  451.  
  452. [code]
  453.  
  454. DISC INFO:
  455.  
  456. Disc Title:     LAZZARO FELICE 18.BD.DDNCREW
  457. Disc Size:      27,062,440,200 bytes
  458. Protection:     AACS
  459. BD-Java:        No
  460. BDInfo:         0.5.8
  461.  
  462. PLAYLIST REPORT:
  463.  
  464. Name:                   00005.MPLS
  465. Length:                 0:01:02.562 (h:m:s.ms)
  466. Size:                   43,622,400 bytes
  467. Total Bitrate:          5.58 Mbps
  468.  
  469. VIDEO:
  470.  
  471. Codec                   Bitrate             Description    
  472. -----                   -------             -----------    
  473. MPEG-4 AVC Video        3000 kbps           1080p / 23.976 fps / 16:9 / High Profile 4.1
  474.  
  475. AUDIO:
  476.  
  477. Codec                           Language        Bitrate         Description    
  478. -----                           --------        -------         -----------    
  479. LPCM Audio                      Italian         2304 kbps       2.0 / 48 kHz / 2304 kbps / 24-bit
  480.  
  481. FILES:
  482.  
  483. Name            Time In         Length          Size            Total Bitrate  
  484. ----            -------         ------          ----            -------------  
  485. 00004.M2TS      0:00:00.000     0:01:02.562     43,622,400      5,578          
  486.  
  487. CHAPTERS:
  488.  
  489. Number          Time In         Length          Avg Video Rate  Max 1-Sec Rate  Max 1-Sec Time  Max 5-Sec Rate  Max 5-Sec Time  Max 10Sec Rate  Max 10Sec Time  Avg Frame Size  Max Frame Size  Max Frame Time  
  490. ------          -------         ------          --------------  --------------  --------------  --------------  --------------  --------------  --------------  --------------  --------------  --------------  
  491. 1               0:00:00.000     0:01:02.562     3,000 kbps      8,108 kbps      00:00:22.897    6,958 kbps      00:00:21.855    4,956 kbps      00:00:21.855    15,640 bytes    342,509 bytes   00:00:24.107    
  492.  
  493. STREAM DIAGNOSTICS:
  494.  
  495. File            PID             Type            Codec           Language                Seconds                 Bitrate                 Bytes           Packets        
  496. ----            ---             ----            -----           --------                --------------          --------------          -------------   -----          
  497. 00004.M2TS      4113 (0x1011)   0x1B            AVC                                     62.437                  3,006                   23,460,576      128,358        
  498. 00004.M2TS      4352 (0x1100)   0x80            LPCM            ita (Italian)           62.437                  2,237                   17,460,848      96,736          
  499.  
  500. [/code]
  501. <---- END FORUMS PASTE ---->
  502.  
  503. QUICK SUMMARY:
  504.  
  505. Disc Title: LAZZARO FELICE 18.BD.DDNCREW
  506. Disc Size: 27,062,440,200 bytes
  507. Protection: AACS
  508. BD-Java: No
  509. Playlist: 00005.MPLS
  510. Size: 43,622,400 bytes
  511. Length: 0:01:02.562
  512. Total Bitrate: 5.58 Mbps
  513. Video: MPEG-4 AVC Video / 3000 kbps / 1080p / 23.976 fps / 16:9 / High Profile 4.1
  514. Audio: Italian / LPCM Audio / 2.0 / 48 kHz / 2304 kbps / 24-bit
  515.  
  516.  
  517. ********************
  518. PLAYLIST: 00007.MPLS
  519. ********************
  520.  
  521. <--- BEGIN FORUMS PASTE --->
  522. [code]
  523.                                                                                                                 Total   Video                                            
  524. Title                                                           Codec   Length  Movie Size      Disc Size       Bitrate Bitrate Main Audio Track                          Secondary Audio Track
  525. -----                                                           ------  ------- --------------  --------------  ------- ------- ------------------                        ---------------------
  526. 00007.MPLS                                                      AVC     0:00:28 16,766,976      27,062,440,200  4.74    2.16    DTS-HD Master 5.1 2196Kbps (48kHz/24-bit)
  527. [/code]
  528.  
  529. [code]
  530.  
  531. DISC INFO:
  532.  
  533. Disc Title:     LAZZARO FELICE 18.BD.DDNCREW
  534. Disc Size:      27,062,440,200 bytes
  535. Protection:     AACS
  536. BD-Java:        No
  537. BDInfo:         0.5.8
  538.  
  539. PLAYLIST REPORT:
  540.  
  541. Name:                   00007.MPLS
  542. Length:                 0:00:28.278 (h:m:s.ms)
  543. Size:                   16,766,976 bytes
  544. Total Bitrate:          4.74 Mbps
  545.  
  546. VIDEO:
  547.  
  548. Codec                   Bitrate             Description    
  549. -----                   -------             -----------    
  550. MPEG-4 AVC Video        2163 kbps           1080p / 23.976 fps / 16:9 / High Profile 4.1
  551.  
  552. AUDIO:
  553.  
  554. Codec                           Language        Bitrate         Description    
  555. -----                           --------        -------         -----------    
  556. DTS-HD Master Audio             Italian         2196 kbps       5.1 / 48 kHz / 2196 kbps / 24-bit (DTS Core: 5.1 / 48 kHz / 1509 kbps / 24-bit)
  557.  
  558. FILES:
  559.  
  560. Name            Time In         Length          Size            Total Bitrate  
  561. ----            -------         ------          ----            -------------  
  562. 00006.M2TS      0:00:00.000     0:00:14.055     2,568,192       1,462          
  563. 00007.M2TS      0:00:14.055     0:00:14.222     14,198,784      7,987          
  564.  
  565. CHAPTERS:
  566.  
  567. Number          Time In         Length          Avg Video Rate  Max 1-Sec Rate  Max 1-Sec Time  Max 5-Sec Rate  Max 5-Sec Time  Max 10Sec Rate  Max 10Sec Time  Avg Frame Size  Max Frame Size  Max Frame Time  
  568. ------          -------         ------          --------------  --------------  --------------  --------------  --------------  --------------  --------------  --------------  --------------  --------------  
  569. 1               0:00:00.000     0:00:28.278     2,163 kbps      8,404 kbps      00:00:18.852    5,828 kbps      00:00:18.101    3,952 kbps      00:00:15.056    11,276 bytes    140,716 bytes   00:00:03.003    
  570.  
  571. STREAM DIAGNOSTICS:
  572.  
  573. File            PID             Type            Codec           Language                Seconds                 Bitrate                 Bytes           Packets        
  574. ----            ---             ----            -----           --------                --------------          --------------          -------------   -----          
  575. 00006.M2TS      4113 (0x1011)   0x1B            AVC                                     13.972                  1,346                   2,350,064       12,895          
  576. 00007.M2TS      4113 (0x1011)   0x1B            AVC                                     14.139                  2,996                   5,295,041       28,976          
  577. 00007.M2TS      4352 (0x1100)   0x86            DTS-HD MA       ita (Italian)           14.139                  4,392                   7,762,000       44,444          
  578.  
  579. [/code]
  580. <---- END FORUMS PASTE ---->
  581.  
  582. QUICK SUMMARY:
  583.  
  584. Disc Title: LAZZARO FELICE 18.BD.DDNCREW
  585. Disc Size: 27,062,440,200 bytes
  586. Protection: AACS
  587. BD-Java: No
  588. Playlist: 00007.MPLS
  589. Size: 16,766,976 bytes
  590. Length: 0:00:28.278
  591. Total Bitrate: 4.74 Mbps
  592. Video: MPEG-4 AVC Video / 2163 kbps / 1080p / 23.976 fps / 16:9 / High Profile 4.1
  593. Audio: Italian / DTS-HD Master Audio / 5.1 / 48 kHz / 2196 kbps / 24-bit (DTS Core: 5.1 / 48 kHz / 1509 kbps / 24-bit)
RAW Paste Data
We use cookies for various purposes including analytics. By continuing to use Pastebin, you agree to our use of cookies as described in the Cookies Policy. OK, I Understand
 
Top