GrabHD

Untitled

Mar 15th, 2020
97
Never
Not a member of Pastebin yet? Sign Up, it unlocks many cool features!
  1. General
  2. Unique ID : 260133648525667888503011576173172284338 (0xC3B3EB17453BF7F0F7E5DF403D46DBB2)
  3. Complete name : Go.Karts.2020.1080p.NF.WEB-DL.DDP5.1.x264-EniaHD.mkv
  4. Format : Matroska
  5. Format version : Version 4
  6. File size : 4.51 GiB
  7. Duration : 1 h 43 min
  8. Overall bit rate mode : Variable
  9. Overall bit rate : 6 256 kb/s
  10. Movie name : Go Karts! (2020) - EniaHD
  11. Encoded date : UTC 2020-03-13 07:33:04
  12. Writing application : mkvmerge v44.0.0 ('Domino') 64-bit
  13. Writing library : libebml v1.3.10 + libmatroska v1.5.2
  14.  
  15. Video
  16. ID : 1
  17. Format : AVC
  18. Format/Info : Advanced Video Codec
  19. Format profile : Main@L4
  20. Format settings : CABAC / 3 Ref Frames
  21. Format settings, CABAC : Yes
  22. Format settings, Reference fra : 3 frames
  23. Codec ID : V_MPEG4/ISO/AVC
  24. Duration : 1 h 43 min
  25. Bit rate mode : Variable
  26. Bit rate : 5 110 kb/s
  27. Maximum bit rate : 7 665 kb/s
  28. Width : 1 920 pixels
  29. Height : 1 080 pixels
  30. Display aspect ratio : 16:9
  31. Frame rate mode : Constant
  32. Frame rate : 24.000 FPS
  33. Color space : YUV
  34. Chroma subsampling : 4:2:0
  35. Bit depth : 8 bits
  36. Scan type : Progressive
  37. Bits/(Pixel*Frame) : 0.103
  38. Stream size : 3.58 GiB (79%)
  39. Writing library : x264 core 148 r2717 0d2410d
  40. Encoding settings : cabac=1 / ref=3 / deblock=1:0:0 / analyse=0x1:0x111 / me=umh / subme=10 / psy=1 / psy_rd=1.00:0.00 / mixed_ref=1 / me_range=24 / chroma_me=1 / trellis=2 / 8x8dct=0 / cqm=0 / deadzone=21,11 / fast_pskip=1 / chroma_qp_offset=-2 / threads=6 / lookahead_threads=1 / sliced_threads=0 / nr=0 / decimate=1 / interlaced=0 / bluray_compat=0 / stitchable=1 / constrained_intra=0 / bframes=2 / b_pyramid=0 / b_adapt=2 / b_bias=0 / direct=3 / weightb=1 / open_gop=0 / weightp=2 / keyint=250 / keyint_min=24 / scenecut=0 / intra_refresh=0 / rc_lookahead=48 / rc=2pass / mbtree=1 / bitrate=5110 / ratetol=1.0 / qcomp=0.50 / qpmin=6 / qpmax=51 / qpstep=4 / cplxblur=20.0 / qblur=0.5 / vbv_maxrate=7665 / vbv_bufsize=10220 / nal_hrd=vbr / filler=0 / ip_ratio=1.40 / aq=1:1.00
  41. Default : Yes
  42. Forced : No
  43.  
  44. Audio #1
  45. ID : 2
  46. Format : E-AC-3
  47. Format/Info : Enhanced AC-3
  48. Commercial name : Dolby Digital Plus
  49. Codec ID : A_EAC3
  50. Duration : 1 h 43 min
  51. Bit rate mode : Constant
  52. Bit rate : 640 kb/s
  53. Channel(s) : 6 channels
  54. Channel layout : L R C LFE Ls Rs
  55. Sampling rate : 48.0 kHz
  56. Frame rate : 31.250 FPS (1536 SPF)
  57. Compression mode : Lossy
  58. Stream size : 472 MiB (10%)
  59. Language : Russian
  60. Service kind : Complete Main
  61. Default : Yes
  62. Forced : No
  63.  
  64. Audio #2
  65. ID : 3
  66. Format : E-AC-3
  67. Format/Info : Enhanced AC-3
  68. Commercial name : Dolby Digital Plus
  69. Codec ID : A_EAC3
  70. Duration : 1 h 43 min
  71. Bit rate mode : Constant
  72. Bit rate : 640 kb/s
  73. Channel(s) : 6 channels
  74. Channel layout : L R C LFE Ls Rs
  75. Sampling rate : 48.0 kHz
  76. Frame rate : 31.250 FPS (1536 SPF)
  77. Compression mode : Lossy
  78. Stream size : 472 MiB (10%)
  79. Language : English
  80. Service kind : Complete Main
  81. Default : No
  82. Forced : No
  83.  
  84. Text #1
  85. ID : 4
  86. Format : UTF-8
  87. Codec ID : S_TEXT/UTF8
  88. Codec ID/Info : UTF-8 Plain Text
  89. Duration : 1 h 39 min
  90. Bit rate : 1 b/s
  91. Count of elements : 24
  92. Stream size : 968 Bytes (0%)
  93. Title : Forced
  94. Language : Russian
  95. Default : Yes
  96. Forced : No
  97.  
  98. Text #2
  99. ID : 5
  100. Format : UTF-8
  101. Codec ID : S_TEXT/UTF8
  102. Codec ID/Info : UTF-8 Plain Text
  103. Duration : 1 h 35 min
  104. Bit rate : 81 b/s
  105. Count of elements : 1335
  106. Stream size : 57.2 KiB (0%)
  107. Language : Russian
  108. Default : No
  109. Forced : No
  110.  
  111. Text #3
  112. ID : 6
  113. Format : UTF-8
  114. Codec ID : S_TEXT/UTF8
  115. Codec ID/Info : UTF-8 Plain Text
  116. Duration : 1 h 36 min
  117. Bit rate : 59 b/s
  118. Count of elements : 1453
  119. Stream size : 41.9 KiB (0%)
  120. Language : English
  121. Default : No
  122. Forced : No
  123.  
  124. Text #4
  125. ID : 7
  126. Format : UTF-8
  127. Codec ID : S_TEXT/UTF8
  128. Codec ID/Info : UTF-8 Plain Text
  129. Duration : 1 h 36 min
  130. Bit rate : 66 b/s
  131. Count of elements : 1656
  132. Stream size : 46.8 KiB (0%)
  133. Title : SDH
  134. Language : English
  135. Default : No
  136. Forced : No
  137.  
  138. Text #5
  139. ID : 8
  140. Format : UTF-8
  141. Codec ID : S_TEXT/UTF8
  142. Codec ID/Info : UTF-8 Plain Text
  143. Duration : 1 h 35 min
  144. Bit rate : 54 b/s
  145. Count of elements : 1200
  146. Stream size : 38.0 KiB (0%)
  147. Language : German
  148. Default : No
  149. Forced : No
  150.  
  151. Text #6
  152. ID : 9
  153. Format : UTF-8
  154. Codec ID : S_TEXT/UTF8
  155. Codec ID/Info : UTF-8 Plain Text
  156. Duration : 1 h 35 min
  157. Bit rate : 51 b/s
  158. Count of elements : 1263
  159. Stream size : 36.3 KiB (0%)
  160. Language : Spanish
  161. Default : No
  162. Forced : No
  163.  
  164. Text #7
  165. ID : 10
  166. Format : UTF-8
  167. Codec ID : S_TEXT/UTF8
  168. Codec ID/Info : UTF-8 Plain Text
  169. Duration : 1 h 35 min
  170. Bit rate : 50 b/s
  171. Count of elements : 1329
  172. Stream size : 35.7 KiB (0%)
  173. Language : French
  174. Default : No
  175. Forced : No
  176.  
  177. Text #8
  178. ID : 11
  179. Format : UTF-8
  180. Codec ID : S_TEXT/UTF8
  181. Codec ID/Info : UTF-8 Plain Text
  182. Duration : 1 h 36 min
  183. Bit rate : 51 b/s
  184. Count of elements : 1320
  185. Stream size : 36.4 KiB (0%)
  186. Language : Italian
  187. Default : No
  188. Forced : No
  189.  
  190. Text #9
  191. ID : 12
  192. Format : UTF-8
  193. Codec ID : S_TEXT/UTF8
  194. Codec ID/Info : UTF-8 Plain Text
  195. Duration : 1 h 35 min
  196. Bit rate : 49 b/s
  197. Count of elements : 1332
  198. Stream size : 34.9 KiB (0%)
  199. Title : Brazilian
  200. Language : Portuguese
  201. Default : No
  202. Forced : No
RAW Paste Data