AlemaoPS

Untitled

Aug 6th, 2019
140
Never
Not a member of Pastebin yet? Sign Up, it unlocks many cool features!
  1. Video
  2. ID : 1
  3. Format : AVC
  4. Format/Info : Advanced Video Codec
  5. Format profile : High@L4
  6. Format settings : CABAC / 4 Ref Frames
  7. Format settings, CABAC : Yes
  8. Format settings, Reference frames : 4 frames
  9. Format settings, GOP : M=4, N=48
  10. Codec ID : V_MPEG4/ISO/AVC
  11. Duration : 1 h 30 min
  12. Bit rate mode : Constant
  13. Bit rate : 6 278 kb/s
  14. Nominal bit rate : 10 000 kb/s
  15. Width : 1 920 pixels
  16. Height : 800 pixels
  17. Display aspect ratio : 2.40:1
  18. Frame rate mode : Constant
  19. Frame rate : 23.976 (24000/1001) FPS
  20. Color space : YUV
  21. Chroma subsampling : 4:2:0
  22. Bit depth : 8 bits
  23. Scan type : Progressive
  24. Bits/(Pixel*Frame) : 0.170
  25. Stream size : 3.97 GiB (91%)
  26. Default : Yes
  27. Forced : No
  28. Color range : Limited
  29. Color primaries : BT.709
  30. Transfer characteristics : BT.709
  31. Matrix coefficients : BT.709
  32.  
  33. Audio
  34. ID : 2
  35. Format : E-AC-3
  36. Format/Info : Enhanced AC-3
  37. Commercial name : Dolby Digital Plus
  38. Codec ID : A_EAC3
  39. Duration : 1 h 30 min
  40. Bit rate mode : Constant
  41. Bit rate : 640 kb/s
  42. Channel(s) : 6 channels
  43. Channel layout : L R C LFE Ls Rs
  44. Sampling rate : 48.0 kHz
  45. Frame rate : 31.250 FPS (1536 SPF)
  46. Compression mode : Lossy
  47. Stream size : 414 MiB (9%)
  48. Language : English
  49. Service kind : Complete Main
  50. Default : Yes
  51. Forced : No
  52.  
  53. Text #1
  54. ID : 3
  55. Format : UTF-8
  56. Codec ID : S_TEXT/UTF8
  57. Codec ID/Info : UTF-8 Plain Text
  58. Duration : 1 h 27 min
  59. Bit rate : 42 b/s
  60. Count of elements : 1035
  61. Stream size : 27.3 KiB (0%)
  62. Language : English
  63. Default : No
  64. Forced : No
  65.  
  66. Text #2
  67. ID : 4
  68. Format : UTF-8
  69. Codec ID : S_TEXT/UTF8
  70. Codec ID/Info : UTF-8 Plain Text
  71. Duration : 1 h 29 min
  72. Bit rate : 50 b/s
  73. Count of elements : 1351
  74. Stream size : 33.3 KiB (0%)
  75. Title : SDH
  76. Language : English
  77. Default : No
  78. Forced : No
RAW Paste Data

Adblocker detected! Please consider disabling it...

We've detected AdBlock Plus or some other adblocking software preventing Pastebin.com from fully loading.

We don't have any obnoxious sound, or popup ads, we actively block these annoying types of ads!

Please add Pastebin.com to your ad blocker whitelist or disable your adblocking software.

×