SHARE
TWEET

Untitled

mft39anton Jun 23rd, 2018 147 Never
Not a member of Pastebin yet? Sign Up, it unlocks many cool features!
  1. Disc Title:     EVB053487_HDGEEK
  2. Disc Size:      36,444,728,142 bytes
  3. Protection:     AACS
  4. BD-Java:        No
  5. BDInfo:         0.7.3.3
  6.  
  7. Notes:          
  8.  
  9. BDINFO HOME:
  10.   Cinema Squid
  11.     http://www.cinemasquid.com/blu-ray/tools/bdinfo
  12.  
  13. INCLUDES FORUMS REPORT FOR:
  14.   AVS Forum Blu-ray Audio and Video Specifications Thread
  15.     http://www.avsforum.com/avs-vb/showthread.php?t=1155731
  16.  
  17.  
  18. ********************
  19. PLAYLIST: 00000.MPLS
  20. ********************
  21.  
  22. <--- BEGIN FORUMS PASTE --->
  23. [code]
  24.                                                                                                                 Total   Video                                            
  25. Title                                                           Codec   Length  Movie Size      Disc Size       Bitrate Bitrate Main Audio Track                          Secondary Audio Track
  26. -----                                                           ------  ------- --------------  --------------  ------- ------- ------------------                        ---------------------
  27. 00000.MPLS                                                      AVC     1:30:09 29,532,966,912  36,444,728,142  43.67   29.99   LPCM 2.0 4608Kbps (96kHz/24-bit)          DTS-HD Master 5.1 6853Kbps (96kHz/24-bit)
  28. [/code]
  29.  
  30. [code]
  31.  
  32. DISC INFO:
  33.  
  34. Disc Title:     EVB053487_HDGEEK
  35. Disc Size:      36,444,728,142 bytes
  36. Protection:     AACS
  37. BD-Java:        No
  38. BDInfo:         0.7.3.3
  39.  
  40. PLAYLIST REPORT:
  41.  
  42. Name:                   00000.MPLS
  43. Length:                 1:30:09.654 (h:m:s.ms)
  44. Size:                   29,532,966,912 bytes
  45. Total Bitrate:          43.67 Mbps
  46.  
  47. VIDEO:
  48.  
  49. Codec                   Bitrate             Description    
  50. -----                   -------             -----------    
  51. MPEG-4 AVC Video        29990 kbps          1080p / 23.976 fps / 16:9 / High Profile 4.1
  52.  
  53. AUDIO:
  54.  
  55. Codec                           Language        Bitrate         Description    
  56. -----                           --------        -------         -----------    
  57. LPCM Audio                      English         4608 kbps       2.0 / 96 kHz / 4608 kbps / 24-bit
  58. DTS-HD Master Audio             English         6853 kbps       5.1 / 96 kHz / 6853 kbps / 24-bit (DTS Core: 5.1 / 48 kHz / 1509 kbps / 24-bit)
  59.  
  60. FILES:
  61.  
  62. Name            Time In         Length          Size            Total Bitrate  
  63. ----            -------         ------          ----            -------------  
  64. 00000.M2TS      0:00:00.000     1:30:09.654     29,532,966,912  43,674          
  65.  
  66. CHAPTERS:
  67.  
  68. Number          Time In         Length          Avg Video Rate  Max 1-Sec Rate  Max 1-Sec Time  Max 5-Sec Rate  Max 5-Sec Time  Max 10Sec Rate  Max 10Sec Time  Avg Frame Size  Max Frame Size  Max Frame Time  
  69. ------          -------         ------          --------------  --------------  --------------  --------------  --------------  --------------  --------------  --------------  --------------  --------------  
  70. 1               0:00:00.000     0:01:08.068     18,046 kbps     33,847 kbps     00:01:01.978    32,994 kbps     00:00:57.974    32,896 kbps     00:00:57.932    94,027 bytes    378,209 bytes   00:00:16.016    
  71. 2               0:01:08.068     0:03:34.214     30,477 kbps     33,948 kbps     00:03:16.404    33,018 kbps     00:02:39.993    32,891 kbps     00:03:21.826    158,891 bytes   318,200 bytes   00:04:39.487    
  72. 3               0:04:42.282     0:06:08.368     30,416 kbps     34,087 kbps     00:08:51.113    33,035 kbps     00:05:10.935    32,938 kbps     00:05:01.759    158,574 bytes   309,176 bytes   00:05:15.690    
  73. 4               0:10:50.650     0:05:29.662     30,789 kbps     34,034 kbps     00:14:11.767    33,023 kbps     00:14:11.767    32,910 kbps     00:11:23.516    160,518 bytes   315,334 bytes   00:11:32.400    
  74. 5               0:16:20.312     0:06:46.322     29,862 kbps     34,097 kbps     00:17:03.230    33,043 kbps     00:19:19.950    32,895 kbps     00:17:41.060    155,686 bytes   303,616 bytes   00:21:29.454    
  75. 6               0:23:06.635     0:05:16.065     30,969 kbps     33,976 kbps     00:25:10.592    33,055 kbps     00:25:06.588    32,904 kbps     00:26:33.008    161,457 bytes   293,801 bytes   00:27:18.261    
  76. 7               0:28:22.701     0:04:26.182     30,708 kbps     34,200 kbps     00:31:44.903    33,035 kbps     00:31:40.857    32,932 kbps     00:31:35.894    160,098 bytes   307,031 bytes   00:32:26.277    
  77. 8               0:32:48.883     0:04:31.354     31,242 kbps     34,003 kbps     00:36:44.243    33,062 kbps     00:36:40.114    32,924 kbps     00:35:46.561    162,881 bytes   322,853 bytes   00:35:51.149    
  78. 9               0:37:20.238     0:07:35.454     29,443 kbps     34,016 kbps     00:40:51.407    33,014 kbps     00:39:31.911    32,898 kbps     00:44:12.274    153,504 bytes   305,471 bytes   00:44:20.282    
  79. 10              0:44:55.693     0:07:17.520     31,549 kbps     34,741 kbps     00:50:23.103    33,045 kbps     00:49:33.428    32,911 kbps     00:48:25.569    164,479 bytes   303,967 bytes   00:50:55.093    
  80. 11              0:52:13.213     0:05:15.231     29,936 kbps     34,178 kbps     00:53:24.659    33,015 kbps     00:56:15.497    32,907 kbps     00:53:29.247    156,070 bytes   292,330 bytes   00:53:27.537    
  81. 12              0:57:28.445     0:06:40.400     31,324 kbps     34,084 kbps     01:00:33.755    33,040 kbps     01:01:20.718    32,922 kbps     01:00:53.107    163,308 bytes   306,234 bytes   00:58:04.397    
  82. 13              1:04:08.845     0:04:29.269     30,336 kbps     33,932 kbps     01:05:45.983    33,008 kbps     01:04:57.101    32,877 kbps     01:04:56.976    158,159 bytes   297,872 bytes   01:04:41.919    
  83. 14              1:08:38.114     0:06:13.372     29,962 kbps     34,189 kbps     01:14:48.817    33,092 kbps     01:14:44.813    32,922 kbps     01:11:12.685    156,208 bytes   302,727 bytes   01:09:29.957    
  84. 15              1:14:51.487     0:03:46.226     30,247 kbps     33,870 kbps     01:17:10.792    33,006 kbps     01:15:43.038    32,908 kbps     01:15:43.997    157,695 bytes   308,272 bytes   01:16:37.509    
  85. 16              1:18:37.713     0:04:42.198     30,469 kbps     34,067 kbps     01:22:23.772    33,078 kbps     01:22:19.851    32,919 kbps     01:20:47.801    158,853 bytes   299,275 bytes   01:23:13.196    
  86. 17              1:23:19.911     0:06:49.742     25,774 kbps     36,510 kbps     01:28:21.921    33,002 kbps     01:25:22.992    32,924 kbps     01:27:02.091    134,388 bytes   308,108 bytes   01:28:53.328    
  87.  
  88. STREAM DIAGNOSTICS:
  89.  
  90. File            PID             Type            Codec           Language                Seconds                 Bitrate                 Bytes           Packets        
  91. ----            ---             ----            -----           --------                --------------          --------------          -------------   -----          
  92. 00000.M2TS      4113 (0x1011)   0x1B            AVC                                     5409.487                29,991                  20,279,201,944  110,288,414    
  93. 00000.M2TS      4352 (0x1100)   0x80            LPCM            eng (English)           5409.487                4,615                   3,120,289,004   17,310,896      
  94. 00000.M2TS      4353 (0x1101)   0x86            DTS-HD MA       eng (English)           5409.487                6,853                   4,633,983,496   26,036,975      
  95.  
  96. [/code]
  97. <---- END FORUMS PASTE ---->
  98.  
  99. QUICK SUMMARY:
  100.  
  101. Disc Title: EVB053487_HDGEEK
  102. Disc Size: 36,444,728,142 bytes
  103. Protection: AACS
  104. BD-Java: No
  105. Playlist: 00000.MPLS
  106. Size: 29,532,966,912 bytes
  107. Length: 1:30:09.654
  108. Total Bitrate: 43.67 Mbps
  109. Video: MPEG-4 AVC Video / 29990 kbps / 1080p / 23.976 fps / 16:9 / High Profile 4.1
  110. Audio: English / LPCM Audio / 2.0 / 96 kHz / 4608 kbps / 24-bit
  111. Audio: English / DTS-HD Master Audio / 5.1 / 96 kHz / 6853 kbps / 24-bit (DTS Core: 5.1 / 48 kHz / 1509 kbps / 24-bit)
  112.  
  113.  
  114. ********************
  115. PLAYLIST: 00011.MPLS
  116. ********************
  117.  
  118. <--- BEGIN FORUMS PASTE --->
  119. [code]
  120.                                                                                                                 Total   Video                                            
  121. Title                                                           Codec   Length  Movie Size      Disc Size       Bitrate Bitrate Main Audio Track                          Secondary Audio Track
  122. -----                                                           ------  ------- --------------  --------------  ------- ------- ------------------                        ---------------------
  123. 00011.MPLS                                                      AVC     1:30:09 29,532,966,912  36,444,728,142  43.67   29.99   LPCM 2.0 4608Kbps (96kHz/24-bit)          DTS-HD Master 5.1 6853Kbps (96kHz/24-bit)
  124. [/code]
  125.  
  126. [code]
  127.  
  128. DISC INFO:
  129.  
  130. Disc Title:     EVB053487_HDGEEK
  131. Disc Size:      36,444,728,142 bytes
  132. Protection:     AACS
  133. BD-Java:        No
  134. BDInfo:         0.7.3.3
  135.  
  136. PLAYLIST REPORT:
  137.  
  138. Name:                   00011.MPLS
  139. Length:                 1:30:09.654 (h:m:s.ms)
  140. Size:                   29,532,966,912 bytes
  141. Total Bitrate:          43.67 Mbps
  142.  
  143. VIDEO:
  144.  
  145. Codec                   Bitrate             Description    
  146. -----                   -------             -----------    
  147. MPEG-4 AVC Video        29990 kbps          1080p / 23.976 fps / 16:9 / High Profile 4.1
  148.  
  149. AUDIO:
  150.  
  151. Codec                           Language        Bitrate         Description    
  152. -----                           --------        -------         -----------    
  153. LPCM Audio                      English         4608 kbps       2.0 / 96 kHz / 4608 kbps / 24-bit
  154. DTS-HD Master Audio             English         6853 kbps       5.1 / 96 kHz / 6853 kbps / 24-bit (DTS Core: 5.1 / 48 kHz / 1509 kbps / 24-bit)
  155.  
  156. FILES:
  157.  
  158. Name            Time In         Length          Size            Total Bitrate  
  159. ----            -------         ------          ----            -------------  
  160. 00000.M2TS      0:00:00.000     1:30:09.654     29,532,966,912  43,674          
  161.  
  162. CHAPTERS:
  163.  
  164. Number          Time In         Length          Avg Video Rate  Max 1-Sec Rate  Max 1-Sec Time  Max 5-Sec Rate  Max 5-Sec Time  Max 10Sec Rate  Max 10Sec Time  Avg Frame Size  Max Frame Size  Max Frame Time  
  165. ------          -------         ------          --------------  --------------  --------------  --------------  --------------  --------------  --------------  --------------  --------------  --------------  
  166. 1               0:00:00.000     0:01:08.068     18,046 kbps     33,847 kbps     00:01:01.978    32,994 kbps     00:00:57.974    32,896 kbps     00:00:57.932    94,027 bytes    378,209 bytes   00:00:16.016    
  167. 2               0:01:08.068     0:03:34.214     30,477 kbps     33,948 kbps     00:03:16.404    33,018 kbps     00:02:39.993    32,891 kbps     00:03:21.826    158,891 bytes   318,200 bytes   00:04:39.487    
  168. 3               0:04:42.282     0:06:08.368     30,416 kbps     34,087 kbps     00:08:51.113    33,035 kbps     00:05:10.935    32,938 kbps     00:05:01.759    158,574 bytes   309,176 bytes   00:05:15.690    
  169. 4               0:10:50.650     0:05:29.662     30,789 kbps     34,034 kbps     00:14:11.767    33,023 kbps     00:14:11.767    32,910 kbps     00:11:23.516    160,518 bytes   315,334 bytes   00:11:32.400    
  170. 5               0:16:20.312     0:06:46.322     29,862 kbps     34,097 kbps     00:17:03.230    33,043 kbps     00:19:19.950    32,895 kbps     00:17:41.060    155,686 bytes   303,616 bytes   00:21:29.454    
  171. 6               0:23:06.635     0:05:16.065     30,969 kbps     33,976 kbps     00:25:10.592    33,055 kbps     00:25:06.588    32,904 kbps     00:26:33.008    161,457 bytes   293,801 bytes   00:27:18.261    
  172. 7               0:28:22.701     0:04:26.182     30,708 kbps     34,200 kbps     00:31:44.903    33,035 kbps     00:31:40.857    32,932 kbps     00:31:35.894    160,098 bytes   307,031 bytes   00:32:26.277    
  173. 8               0:32:48.883     0:04:31.354     31,242 kbps     34,003 kbps     00:36:44.243    33,062 kbps     00:36:40.114    32,924 kbps     00:35:46.561    162,881 bytes   322,853 bytes   00:35:51.149    
  174. 9               0:37:20.238     0:07:35.454     29,443 kbps     34,016 kbps     00:40:51.407    33,014 kbps     00:39:31.911    32,898 kbps     00:44:12.274    153,504 bytes   305,471 bytes   00:44:20.282    
  175. 10              0:44:55.693     0:07:17.520     31,549 kbps     34,741 kbps     00:50:23.103    33,045 kbps     00:49:33.428    32,911 kbps     00:48:25.569    164,479 bytes   303,967 bytes   00:50:55.093    
  176. 11              0:52:13.213     0:05:15.231     29,936 kbps     34,178 kbps     00:53:24.659    33,015 kbps     00:56:15.497    32,907 kbps     00:53:29.247    156,070 bytes   292,330 bytes   00:53:27.537    
  177. 12              0:57:28.445     0:06:40.400     31,324 kbps     34,084 kbps     01:00:33.755    33,040 kbps     01:01:20.718    32,922 kbps     01:00:53.107    163,308 bytes   306,234 bytes   00:58:04.397    
  178. 13              1:04:08.845     0:04:29.269     30,336 kbps     33,932 kbps     01:05:45.983    33,008 kbps     01:04:57.101    32,877 kbps     01:04:56.976    158,159 bytes   297,872 bytes   01:04:41.919    
  179. 14              1:08:38.114     0:06:13.372     29,962 kbps     34,189 kbps     01:14:48.817    33,092 kbps     01:14:44.813    32,922 kbps     01:11:12.685    156,208 bytes   302,727 bytes   01:09:29.957    
  180. 15              1:14:51.487     0:03:46.226     30,247 kbps     33,870 kbps     01:17:10.792    33,006 kbps     01:15:43.038    32,908 kbps     01:15:43.997    157,695 bytes   308,272 bytes   01:16:37.509    
  181. 16              1:18:37.713     0:04:42.198     30,469 kbps     34,067 kbps     01:22:23.772    33,078 kbps     01:22:19.851    32,919 kbps     01:20:47.801    158,853 bytes   299,275 bytes   01:23:13.196    
  182. 17              1:23:19.911     0:06:49.742     25,774 kbps     36,510 kbps     01:28:21.921    33,002 kbps     01:25:22.992    32,924 kbps     01:27:02.091    134,388 bytes   308,108 bytes   01:28:53.328    
  183.  
  184. STREAM DIAGNOSTICS:
  185.  
  186. File            PID             Type            Codec           Language                Seconds                 Bitrate                 Bytes           Packets        
  187. ----            ---             ----            -----           --------                --------------          --------------          -------------   -----          
  188. 00000.M2TS      4113 (0x1011)   0x1B            AVC                                     5409.487                29,991                  20,279,201,944  110,288,414    
  189. 00000.M2TS      4352 (0x1100)   0x80            LPCM            eng (English)           5409.487                4,615                   3,120,289,004   17,310,896      
  190. 00000.M2TS      4353 (0x1101)   0x86            DTS-HD MA       eng (English)           5409.487                6,853                   4,633,983,496   26,036,975      
  191.  
  192. [/code]
  193. <---- END FORUMS PASTE ---->
  194.  
  195. QUICK SUMMARY:
  196.  
  197. Disc Title: EVB053487_HDGEEK
  198. Disc Size: 36,444,728,142 bytes
  199. Protection: AACS
  200. BD-Java: No
  201. Playlist: 00011.MPLS
  202. Size: 29,532,966,912 bytes
  203. Length: 1:30:09.654
  204. Total Bitrate: 43.67 Mbps
  205. Video: MPEG-4 AVC Video / 29990 kbps / 1080p / 23.976 fps / 16:9 / High Profile 4.1
  206. Audio: English / LPCM Audio / 2.0 / 96 kHz / 4608 kbps / 24-bit
  207. Audio: English / DTS-HD Master Audio / 5.1 / 96 kHz / 6853 kbps / 24-bit (DTS Core: 5.1 / 48 kHz / 1509 kbps / 24-bit)
  208.  
  209.  
  210. ********************
  211. PLAYLIST: 00019.MPLS
  212. ********************
  213.  
  214. <--- BEGIN FORUMS PASTE --->
  215. [code]
  216.                                                                                                                 Total   Video                                            
  217. Title                                                           Codec   Length  Movie Size      Disc Size       Bitrate Bitrate Main Audio Track                          Secondary Audio Track
  218. -----                                                           ------  ------- --------------  --------------  ------- ------- ------------------                        ---------------------
  219. 00019.MPLS                                                      AVC     0:25:49 6,613,008,384   36,444,728,142  34.14   29.99   LPCM 2.0 1536Kbps (48kHz/16-bit)          
  220. [/code]
  221.  
  222. [code]
  223.  
  224. DISC INFO:
  225.  
  226. Disc Title:     EVB053487_HDGEEK
  227. Disc Size:      36,444,728,142 bytes
  228. Protection:     AACS
  229. BD-Java:        No
  230. BDInfo:         0.7.3.3
  231.  
  232. PLAYLIST REPORT:
  233.  
  234. Name:                   00019.MPLS
  235. Length:                 0:25:49.631 (h:m:s.ms)
  236. Size:                   6,613,008,384 bytes
  237. Total Bitrate:          34.14 Mbps
  238.  
  239. VIDEO:
  240.  
  241. Codec                   Bitrate             Description    
  242. -----                   -------             -----------    
  243. MPEG-4 AVC Video        29989 kbps          1080p / 23.976 fps / 16:9 / High Profile 4.1
  244.  
  245. AUDIO:
  246.  
  247. Codec                           Language        Bitrate         Description    
  248. -----                           --------        -------         -----------    
  249. LPCM Audio                      English         1536 kbps       2.0 / 48 kHz / 1536 kbps / 16-bit
  250.  
  251. SUBTITLES:
  252.  
  253. Codec                           Language        Bitrate         Description    
  254. -----                           --------        -------         -----------    
  255. Presentation Graphics           English         71.202 kbps                    
  256. Presentation Graphics           German          64.877 kbps                    
  257. Presentation Graphics           Spanish         66.163 kbps                    
  258. Presentation Graphics           French          60.184 kbps                    
  259. Presentation Graphics           Portuguese      64.340 kbps                    
  260.  
  261. FILES:
  262.  
  263. Name            Time In         Length          Size            Total Bitrate  
  264. ----            -------         ------          ----            -------------  
  265. 00001.M2TS      0:00:00.000     0:20:13.462     5,105,534,976   33,659          
  266. 00016.M2TS      0:20:13.462     0:05:36.169     1,507,473,408   35,874          
  267.  
  268. CHAPTERS:
  269.  
  270. Number          Time In         Length          Avg Video Rate  Max 1-Sec Rate  Max 1-Sec Time  Max 5-Sec Rate  Max 5-Sec Time  Max 10Sec Rate  Max 10Sec Time  Avg Frame Size  Max Frame Size  Max Frame Time  
  271. ------          -------         ------          --------------  --------------  --------------  --------------  --------------  --------------  --------------  --------------  --------------  --------------  
  272. 1               0:00:00.000     0:20:13.212     29,990 kbps     34,542 kbps     00:05:32.165    33,053 kbps     00:18:18.055    32,961 kbps     00:00:06.506    156,351 bytes   350,248 bytes   00:00:05.380    
  273. 2               0:20:13.212     0:00:00.250     15,170 kbps     0 kbps          00:00:00.000    0 kbps          00:00:00.000    0 kbps          00:00:00.000    79,088 bytes    172,046 bytes   00:20:13.378    
  274. 3               0:20:13.462     0:05:36.169     29,997 kbps     33,869 kbps     00:21:58.400    33,025 kbps     00:25:30.695    32,874 kbps     00:21:49.433    156,411 bytes   320,698 bytes   00:24:54.743    
  275.  
  276. STREAM DIAGNOSTICS:
  277.  
  278. File            PID             Type            Codec           Language                Seconds                 Bitrate                 Bytes           Packets        
  279. ----            ---             ----            -----           --------                --------------          --------------          -------------   -----          
  280. 00001.M2TS      4113 (0x1011)   0x1B            AVC                                     1213.295                29,991                  4,548,553,572   24,737,352      
  281. 00001.M2TS      4352 (0x1100)   0x80            LPCM            eng (English)           1213.295                1,543                   233,956,052     1,456,158      
  282. 00001.M2TS      4608 (0x1200)   0x90            PGS             eng (English)           1213.295                91                      13,792,197      77,650          
  283. 00001.M2TS      4609 (0x1201)   0x90            PGS             deu (German)            1213.295                83                      12,566,884      70,916          
  284. 00001.M2TS      4610 (0x1202)   0x90            PGS             spa (Spanish)           1213.295                85                      12,815,978      72,267          
  285. 00001.M2TS      4611 (0x1203)   0x90            PGS             fra (French)            1213.295                77                      11,657,853      65,971          
  286. 00001.M2TS      4612 (0x1204)   0x90            PGS             por (Portuguese)        1213.295                82                      12,462,852      70,333          
  287. 00016.M2TS      4113 (0x1011)   0x1B            AVC                                     336.002                 30,012                  1,260,514,103   6,855,301      
  288. 00016.M2TS      4352 (0x1100)   0x80            LPCM            eng (English)           336.002                 1,543                   64,813,576      403,404        
  289.  
  290. [/code]
  291. <---- END FORUMS PASTE ---->
  292.  
  293. QUICK SUMMARY:
  294.  
  295. Disc Title: EVB053487_HDGEEK
  296. Disc Size: 36,444,728,142 bytes
  297. Protection: AACS
  298. BD-Java: No
  299. Playlist: 00019.MPLS
  300. Size: 6,613,008,384 bytes
  301. Length: 0:25:49.631
  302. Total Bitrate: 34.14 Mbps
  303. Video: MPEG-4 AVC Video / 29989 kbps / 1080p / 23.976 fps / 16:9 / High Profile 4.1
  304. Audio: English / LPCM Audio / 2.0 / 48 kHz / 1536 kbps / 16-bit
  305. Subtitle: English / 71.202 kbps
  306. Subtitle: German / 64.877 kbps
  307. Subtitle: Spanish / 66.163 kbps
  308. Subtitle: French / 60.184 kbps
  309. Subtitle: Portuguese / 64.340 kbps
  310.  
  311.  
  312. ********************
  313. PLAYLIST: 00001.MPLS
  314. ********************
  315.  
  316. <--- BEGIN FORUMS PASTE --->
  317. [code]
  318.                                                                                                                 Total   Video                                            
  319. Title                                                           Codec   Length  Movie Size      Disc Size       Bitrate Bitrate Main Audio Track                          Secondary Audio Track
  320. -----                                                           ------  ------- --------------  --------------  ------- ------- ------------------                        ---------------------
  321. 00001.MPLS                                                      AVC     0:20:13 5,105,534,976   36,444,728,142  33.66   29.99   LPCM 2.0 1536Kbps (48kHz/16-bit)          
  322. [/code]
  323.  
  324. [code]
  325.  
  326. DISC INFO:
  327.  
  328. Disc Title:     EVB053487_HDGEEK
  329. Disc Size:      36,444,728,142 bytes
  330. Protection:     AACS
  331. BD-Java:        No
  332. BDInfo:         0.7.3.3
  333.  
  334. PLAYLIST REPORT:
  335.  
  336. Name:                   00001.MPLS
  337. Length:                 0:20:13.462 (h:m:s.ms)
  338. Size:                   5,105,534,976 bytes
  339. Total Bitrate:          33.66 Mbps
  340.  
  341. VIDEO:
  342.  
  343. Codec                   Bitrate             Description    
  344. -----                   -------             -----------    
  345. MPEG-4 AVC Video        29987 kbps          1080p / 23.976 fps / 16:9 / High Profile 4.1
  346.  
  347. AUDIO:
  348.  
  349. Codec                           Language        Bitrate         Description    
  350. -----                           --------        -------         -----------    
  351. LPCM Audio                      English         1536 kbps       2.0 / 48 kHz / 1536 kbps / 16-bit
  352.  
  353. SUBTITLES:
  354.  
  355. Codec                           Language        Bitrate         Description    
  356. -----                           --------        -------         -----------    
  357. Presentation Graphics           English         90.928 kbps                    
  358. Presentation Graphics           German          82.850 kbps                    
  359. Presentation Graphics           Spanish         84.492 kbps                    
  360. Presentation Graphics           French          76.857 kbps                    
  361. Presentation Graphics           Portuguese      82.164 kbps                    
  362.  
  363. FILES:
  364.  
  365. Name            Time In         Length          Size            Total Bitrate  
  366. ----            -------         ------          ----            -------------  
  367. 00001.M2TS      0:00:00.000     0:20:13.462     5,105,534,976   33,659          
  368.  
  369. CHAPTERS:
  370.  
  371. Number          Time In         Length          Avg Video Rate  Max 1-Sec Rate  Max 1-Sec Time  Max 5-Sec Rate  Max 5-Sec Time  Max 10Sec Rate  Max 10Sec Time  Avg Frame Size  Max Frame Size  Max Frame Time  
  372. ------          -------         ------          --------------  --------------  --------------  --------------  --------------  --------------  --------------  --------------  --------------  --------------  
  373. 1               0:00:00.000     0:20:13.462     29,987 kbps     34,542 kbps     00:05:32.165    33,053 kbps     00:18:18.055    32,961 kbps     00:00:06.506    156,340 bytes   350,248 bytes   00:00:05.380    
  374.  
  375. STREAM DIAGNOSTICS:
  376.  
  377. File            PID             Type            Codec           Language                Seconds                 Bitrate                 Bytes           Packets        
  378. ----            ---             ----            -----           --------                --------------          --------------          -------------   -----          
  379. 00001.M2TS      4113 (0x1011)   0x1B            AVC                                     1213.295                29,991                  4,548,553,572   24,737,352      
  380. 00001.M2TS      4352 (0x1100)   0x80            LPCM            eng (English)           1213.295                1,543                   233,956,052     1,456,158      
  381. 00001.M2TS      4608 (0x1200)   0x90            PGS             eng (English)           1213.295                91                      13,792,197      77,650          
  382. 00001.M2TS      4609 (0x1201)   0x90            PGS             deu (German)            1213.295                83                      12,566,884      70,916          
  383. 00001.M2TS      4610 (0x1202)   0x90            PGS             spa (Spanish)           1213.295                85                      12,815,978      72,267          
  384. 00001.M2TS      4611 (0x1203)   0x90            PGS             fra (French)            1213.295                77                      11,657,853      65,971          
  385. 00001.M2TS      4612 (0x1204)   0x90            PGS             por (Portuguese)        1213.295                82                      12,462,852      70,333          
  386.  
  387. [/code]
  388. <---- END FORUMS PASTE ---->
  389.  
  390. QUICK SUMMARY:
  391.  
  392. Disc Title: EVB053487_HDGEEK
  393. Disc Size: 36,444,728,142 bytes
  394. Protection: AACS
  395. BD-Java: No
  396. Playlist: 00001.MPLS
  397. Size: 5,105,534,976 bytes
  398. Length: 0:20:13.462
  399. Total Bitrate: 33.66 Mbps
  400. Video: MPEG-4 AVC Video / 29987 kbps / 1080p / 23.976 fps / 16:9 / High Profile 4.1
  401. Audio: English / LPCM Audio / 2.0 / 48 kHz / 1536 kbps / 16-bit
  402. Subtitle: English / 90.928 kbps
  403. Subtitle: German / 82.850 kbps
  404. Subtitle: Spanish / 84.492 kbps
  405. Subtitle: French / 76.857 kbps
  406. Subtitle: Portuguese / 82.164 kbps
  407.  
  408.  
  409. ********************
  410. PLAYLIST: 00012.MPLS
  411. ********************
  412.  
  413. <--- BEGIN FORUMS PASTE --->
  414. [code]
  415.                                                                                                                 Total   Video                                            
  416. Title                                                           Codec   Length  Movie Size      Disc Size       Bitrate Bitrate Main Audio Track                          Secondary Audio Track
  417. -----                                                           ------  ------- --------------  --------------  ------- ------- ------------------                        ---------------------
  418. 00012.MPLS                                                      AVC     0:20:13 5,105,534,976   36,444,728,142  33.66   29.99   LPCM 2.0 1536Kbps (48kHz/16-bit)          
  419. [/code]
  420.  
  421. [code]
  422.  
  423. DISC INFO:
  424.  
  425. Disc Title:     EVB053487_HDGEEK
  426. Disc Size:      36,444,728,142 bytes
  427. Protection:     AACS
  428. BD-Java:        No
  429. BDInfo:         0.7.3.3
  430.  
  431. PLAYLIST REPORT:
  432.  
  433. Name:                   00012.MPLS
  434. Length:                 0:20:13.462 (h:m:s.ms)
  435. Size:                   5,105,534,976 bytes
  436. Total Bitrate:          33.66 Mbps
  437.  
  438. VIDEO:
  439.  
  440. Codec                   Bitrate             Description    
  441. -----                   -------             -----------    
  442. MPEG-4 AVC Video        29987 kbps          1080p / 23.976 fps / 16:9 / High Profile 4.1
  443.  
  444. AUDIO:
  445.  
  446. Codec                           Language        Bitrate         Description    
  447. -----                           --------        -------         -----------    
  448. LPCM Audio                      English         1536 kbps       2.0 / 48 kHz / 1536 kbps / 16-bit
  449.  
  450. SUBTITLES:
  451.  
  452. Codec                           Language        Bitrate         Description    
  453. -----                           --------        -------         -----------    
  454. Presentation Graphics           English         90.928 kbps                    
  455. Presentation Graphics           German          82.850 kbps                    
  456. Presentation Graphics           Spanish         84.492 kbps                    
  457. Presentation Graphics           French          76.857 kbps                    
  458. Presentation Graphics           Portuguese      82.164 kbps                    
  459.  
  460. FILES:
  461.  
  462. Name            Time In         Length          Size            Total Bitrate  
  463. ----            -------         ------          ----            -------------  
  464. 00001.M2TS      0:00:00.000     0:20:13.462     5,105,534,976   33,659          
  465.  
  466. CHAPTERS:
  467.  
  468. Number          Time In         Length          Avg Video Rate  Max 1-Sec Rate  Max 1-Sec Time  Max 5-Sec Rate  Max 5-Sec Time  Max 10Sec Rate  Max 10Sec Time  Avg Frame Size  Max Frame Size  Max Frame Time  
  469. ------          -------         ------          --------------  --------------  --------------  --------------  --------------  --------------  --------------  --------------  --------------  --------------  
  470. 1               0:00:00.000     0:20:13.462     29,987 kbps     34,542 kbps     00:05:32.165    33,053 kbps     00:18:18.055    32,961 kbps     00:00:06.506    156,340 bytes   350,248 bytes   00:00:05.380    
  471.  
  472. STREAM DIAGNOSTICS:
  473.  
  474. File            PID             Type            Codec           Language                Seconds                 Bitrate                 Bytes           Packets        
  475. ----            ---             ----            -----           --------                --------------          --------------          -------------   -----          
  476. 00001.M2TS      4113 (0x1011)   0x1B            AVC                                     1213.295                29,991                  4,548,553,572   24,737,352      
  477. 00001.M2TS      4352 (0x1100)   0x80            LPCM            eng (English)           1213.295                1,543                   233,956,052     1,456,158      
  478. 00001.M2TS      4608 (0x1200)   0x90            PGS             eng (English)           1213.295                91                      13,792,197      77,650          
  479. 00001.M2TS      4609 (0x1201)   0x90            PGS             deu (German)            1213.295                83                      12,566,884      70,916          
  480. 00001.M2TS      4610 (0x1202)   0x90            PGS             spa (Spanish)           1213.295                85                      12,815,978      72,267          
  481. 00001.M2TS      4611 (0x1203)   0x90            PGS             fra (French)            1213.295                77                      11,657,853      65,971          
  482. 00001.M2TS      4612 (0x1204)   0x90            PGS             por (Portuguese)        1213.295                82                      12,462,852      70,333          
  483.  
  484. [/code]
  485. <---- END FORUMS PASTE ---->
  486.  
  487. QUICK SUMMARY:
  488.  
  489. Disc Title: EVB053487_HDGEEK
  490. Disc Size: 36,444,728,142 bytes
  491. Protection: AACS
  492. BD-Java: No
  493. Playlist: 00012.MPLS
  494. Size: 5,105,534,976 bytes
  495. Length: 0:20:13.462
  496. Total Bitrate: 33.66 Mbps
  497. Video: MPEG-4 AVC Video / 29987 kbps / 1080p / 23.976 fps / 16:9 / High Profile 4.1
  498. Audio: English / LPCM Audio / 2.0 / 48 kHz / 1536 kbps / 16-bit
  499. Subtitle: English / 90.928 kbps
  500. Subtitle: German / 82.850 kbps
  501. Subtitle: Spanish / 84.492 kbps
  502. Subtitle: French / 76.857 kbps
  503. Subtitle: Portuguese / 82.164 kbps
  504.  
  505.  
  506. ********************
  507. PLAYLIST: 00013.MPLS
  508. ********************
  509.  
  510. <--- BEGIN FORUMS PASTE --->
  511. [code]
  512.                                                                                                                 Total   Video                                            
  513. Title                                                           Codec   Length  Movie Size      Disc Size       Bitrate Bitrate Main Audio Track                          Secondary Audio Track
  514. -----                                                           ------  ------- --------------  --------------  ------- ------- ------------------                        ---------------------
  515. 00013.MPLS                                                      AVC     0:05:36 1,507,473,408   36,444,728,142  35.87   30.00   LPCM 2.0 1536Kbps (48kHz/16-bit)          DTS-HD Master 5.1 2322Kbps (48kHz/16-bit)
  516. [/code]
  517.  
  518. [code]
  519.  
  520. DISC INFO:
  521.  
  522. Disc Title:     EVB053487_HDGEEK
  523. Disc Size:      36,444,728,142 bytes
  524. Protection:     AACS
  525. BD-Java:        No
  526. BDInfo:         0.7.3.3
  527.  
  528. PLAYLIST REPORT:
  529.  
  530. Name:                   00013.MPLS
  531. Length:                 0:05:36.169 (h:m:s.ms)
  532. Size:                   1,507,473,408 bytes
  533. Total Bitrate:          35.87 Mbps
  534.  
  535. VIDEO:
  536.  
  537. Codec                   Bitrate             Description    
  538. -----                   -------             -----------    
  539. MPEG-4 AVC Video        29997 kbps          1080p / 23.976 fps / 16:9 / High Profile 4.1
  540.  
  541. AUDIO:
  542.  
  543. Codec                           Language        Bitrate         Description    
  544. -----                           --------        -------         -----------    
  545. LPCM Audio                      English         1536 kbps       2.0 / 48 kHz / 1536 kbps / 16-bit
  546. DTS-HD Master Audio             English         2322 kbps       5.1 / 48 kHz / 2322 kbps / 16-bit (DTS Core: 5.1 / 48 kHz / 1509 kbps / 16-bit)
  547.  
  548. FILES:
  549.  
  550. Name            Time In         Length          Size            Total Bitrate  
  551. ----            -------         ------          ----            -------------  
  552. 00016.M2TS      0:00:00.000     0:05:36.169     1,507,473,408   35,874          
  553.  
  554. CHAPTERS:
  555.  
  556. Number          Time In         Length          Avg Video Rate  Max 1-Sec Rate  Max 1-Sec Time  Max 5-Sec Rate  Max 5-Sec Time  Max 10Sec Rate  Max 10Sec Time  Avg Frame Size  Max Frame Size  Max Frame Time  
  557. ------          -------         ------          --------------  --------------  --------------  --------------  --------------  --------------  --------------  --------------  --------------  --------------  
  558. 1               0:00:00.000     0:05:36.169     29,997 kbps     33,869 kbps     00:01:44.938    33,025 kbps     00:05:17.233    32,874 kbps     00:01:35.970    156,391 bytes   320,698 bytes   00:04:41.281    
  559.  
  560. STREAM DIAGNOSTICS:
  561.  
  562. File            PID             Type            Codec           Language                Seconds                 Bitrate                 Bytes           Packets        
  563. ----            ---             ----            -----           --------                --------------          --------------          -------------   -----          
  564. 00016.M2TS      4113 (0x1011)   0x1B            AVC                                     336.002                 30,012                  1,260,514,103   6,855,301      
  565. 00016.M2TS      4352 (0x1100)   0x80            LPCM            eng (English)           336.002                 1,543                   64,813,576      403,404        
  566. 00016.M2TS      4353 (0x1101)   0x86            DTS-HD MA       eng (English)           336.002                 2,323                   97,553,120      581,418        
  567.  
  568. [/code]
  569. <---- END FORUMS PASTE ---->
  570.  
  571. QUICK SUMMARY:
  572.  
  573. Disc Title: EVB053487_HDGEEK
  574. Disc Size: 36,444,728,142 bytes
  575. Protection: AACS
  576. BD-Java: No
  577. Playlist: 00013.MPLS
  578. Size: 1,507,473,408 bytes
  579. Length: 0:05:36.169
  580. Total Bitrate: 35.87 Mbps
  581. Video: MPEG-4 AVC Video / 29997 kbps / 1080p / 23.976 fps / 16:9 / High Profile 4.1
  582. Audio: English / LPCM Audio / 2.0 / 48 kHz / 1536 kbps / 16-bit
  583. Audio: English / DTS-HD Master Audio / 5.1 / 48 kHz / 2322 kbps / 16-bit (DTS Core: 5.1 / 48 kHz / 1509 kbps / 16-bit)
  584.  
  585.  
  586. ********************
  587. PLAYLIST: 00016.MPLS
  588. ********************
  589.  
  590. <--- BEGIN FORUMS PASTE --->
  591. [code]
  592.                                                                                                                 Total   Video                                            
  593. Title                                                           Codec   Length  Movie Size      Disc Size       Bitrate Bitrate Main Audio Track                          Secondary Audio Track
  594. -----                                                           ------  ------- --------------  --------------  ------- ------- ------------------                        ---------------------
  595. 00016.MPLS                                                      AVC     0:05:36 1,507,473,408   36,444,728,142  35.87   30.00   LPCM 2.0 1536Kbps (48kHz/16-bit)          DTS-HD Master 5.1 2322Kbps (48kHz/16-bit)
  596. [/code]
  597.  
  598. [code]
  599.  
  600. DISC INFO:
  601.  
  602. Disc Title:     EVB053487_HDGEEK
  603. Disc Size:      36,444,728,142 bytes
  604. Protection:     AACS
  605. BD-Java:        No
  606. BDInfo:         0.7.3.3
  607.  
  608. PLAYLIST REPORT:
  609.  
  610. Name:                   00016.MPLS
  611. Length:                 0:05:36.169 (h:m:s.ms)
  612. Size:                   1,507,473,408 bytes
  613. Total Bitrate:          35.87 Mbps
  614.  
  615. VIDEO:
  616.  
  617. Codec                   Bitrate             Description    
  618. -----                   -------             -----------    
  619. MPEG-4 AVC Video        29997 kbps          1080p / 23.976 fps / 16:9 / High Profile 4.1
  620.  
  621. AUDIO:
  622.  
  623. Codec                           Language        Bitrate         Description    
  624. -----                           --------        -------         -----------    
  625. LPCM Audio                      English         1536 kbps       2.0 / 48 kHz / 1536 kbps / 16-bit
  626. DTS-HD Master Audio             English         2322 kbps       5.1 / 48 kHz / 2322 kbps / 16-bit (DTS Core: 5.1 / 48 kHz / 1509 kbps / 16-bit)
  627.  
  628. FILES:
  629.  
  630. Name            Time In         Length          Size            Total Bitrate  
  631. ----            -------         ------          ----            -------------  
  632. 00016.M2TS      0:00:00.000     0:05:36.169     1,507,473,408   35,874          
  633.  
  634. CHAPTERS:
  635.  
  636. Number          Time In         Length          Avg Video Rate  Max 1-Sec Rate  Max 1-Sec Time  Max 5-Sec Rate  Max 5-Sec Time  Max 10Sec Rate  Max 10Sec Time  Avg Frame Size  Max Frame Size  Max Frame Time  
  637. ------          -------         ------          --------------  --------------  --------------  --------------  --------------  --------------  --------------  --------------  --------------  --------------  
  638. 1               0:00:00.000     0:05:36.169     29,997 kbps     33,869 kbps     00:01:44.938    33,025 kbps     00:05:17.233    32,874 kbps     00:01:35.970    156,391 bytes   320,698 bytes   00:04:41.281    
  639.  
  640. STREAM DIAGNOSTICS:
  641.  
  642. File            PID             Type            Codec           Language                Seconds                 Bitrate                 Bytes           Packets        
  643. ----            ---             ----            -----           --------                --------------          --------------          -------------   -----          
  644. 00016.M2TS      4113 (0x1011)   0x1B            AVC                                     336.002                 30,012                  1,260,514,103   6,855,301      
  645. 00016.M2TS      4352 (0x1100)   0x80            LPCM            eng (English)           336.002                 1,543                   64,813,576      403,404        
  646. 00016.M2TS      4353 (0x1101)   0x86            DTS-HD MA       eng (English)           336.002                 2,323                   97,553,120      581,418        
  647.  
  648. [/code]
  649. <---- END FORUMS PASTE ---->
  650.  
  651. QUICK SUMMARY:
  652.  
  653. Disc Title: EVB053487_HDGEEK
  654. Disc Size: 36,444,728,142 bytes
  655. Protection: AACS
  656. BD-Java: No
  657. Playlist: 00016.MPLS
  658. Size: 1,507,473,408 bytes
  659. Length: 0:05:36.169
  660. Total Bitrate: 35.87 Mbps
  661. Video: MPEG-4 AVC Video / 29997 kbps / 1080p / 23.976 fps / 16:9 / High Profile 4.1
  662. Audio: English / LPCM Audio / 2.0 / 48 kHz / 1536 kbps / 16-bit
  663. Audio: English / DTS-HD Master Audio / 5.1 / 48 kHz / 2322 kbps / 16-bit (DTS Core: 5.1 / 48 kHz / 1509 kbps / 16-bit)
RAW Paste Data
We use cookies for various purposes including analytics. By continuing to use Pastebin, you agree to our use of cookies as described in the Cookies Policy. OK, I Understand
 
Top