Advertisement
yushiro

p.Survivor (2015)[m720p].yus

Jan 31st, 2021
81
0
Never
Not a member of Pastebin yet? Sign Up, it unlocks many cool features!
text 6.01 KB | None | 0 0
  1. General
  2. Unique ID : 229824904033270233038443239301656080804 (0xACE6AA9D688545A3D5F81ABA142BF1A4)
  3. Complete name : G:\Survivor (2015)[m720p].mkv
  4. Format : Matroska
  5. Format version : Version 4
  6. File size : 4.00 GiB
  7. Duration : 1 h 36 min
  8. Overall bit rate : 5 925 kb/s
  9. Encoded date : UTC 2021-01-23 00:15:12
  10. Writing application : mkvmerge v51.0.0 ('I Wish') 64-bit
  11. Writing library : libebml v1.4.0 + libmatroska v1.6.2
  12.  
  13. Video
  14. ID : 1
  15. Format : AVC
  16. Format/Info : Advanced Video Codec
  17. Format profile : High@L4.1
  18. Format settings : CABAC / 12 Ref Frames
  19. Format settings, CABAC : Yes
  20. Format settings, Reference : 12 frames
  21. Codec ID : V_MPEG4/ISO/AVC
  22. Duration : 1 h 36 min
  23. Bit rate : 5 036 kb/s
  24. Width : 1 280 pixels
  25. Height : 534 pixels
  26. Display aspect ratio : 2.40:1
  27. Frame rate mode : Constant
  28. Frame rate : 23.976 (24000/1001) FPS
  29. Color space : YUV
  30. Chroma subsampling : 4:2:0
  31. Bit depth : 8 bits
  32. Scan type : Progressive
  33. Bits/(Pixel*Frame) : 0.307
  34. Stream size : 3.39 GiB (85%)
  35. Title : Survivor (2015)[m720p]
  36. Writing library : x264 core 142 r2431+42 c69a006 tMod [8-bit@4:2:0 X86_64]
  37. Encoding settings : cabac=1 / ref=12 / deblock=1:-3:-3 / analyse=0x3:0x133 / me=umh / subme=10 / psy=1 / fade_compensate=0.00 / psy_rd=1.02:0.00 / mixed_ref=1 / me_range=24 / chroma_me=1 / trellis=2 / 8x8dct=1 / cqm=0 / deadzone=21,11 / fast_pskip=0 / chroma_qp_offset=-2 / threads=12 / lookahead_threads=2 / sliced_threads=0 / nr=0 / decimate=0 / interlaced=0 / bluray_compat=0 / constrained_intra=0 / fgo=0 / bframes=8 / b_pyramid=2 / b_adapt=2 / b_bias=0 / direct=3 / weightb=1 / open_gop=0 / weightp=2 / keyint=250 / keyint_min=23 / scenecut=40 / intra_refresh=0 / rc_lookahead=60 / rc=crf / mbtree=1 / crf=13.0000 / qcomp=0.65 / qpmin=0:0:0 / qpmax=69:69:69 / qpstep=4 / vbv_maxrate=50000 / vbv_bufsize=62500 / crf_max=0.0 / nal_hrd=none / filler=0 / ip_ratio=1.30 / aq=4:0.85 / aq-sensitivity=10.00 / aq-factor=1.00:1.00:1.00 / aq2=0 / aq3=0
  38. Language : Spanish
  39. Default : Yes
  40. Forced : No
  41.  
  42. Audio #1
  43. ID : 2
  44. Format : AC-3
  45. Format/Info : Audio Coding 3
  46. Commercial name : Dolby Digital
  47. Codec ID : A_AC3
  48. Duration : 1 h 36 min
  49. Bit rate mode : Constant
  50. Bit rate : 448 kb/s
  51. Channel(s) : 6 channels
  52. Channel layout : L R C LFE Ls Rs
  53. Sampling rate : 48.0 kHz
  54. Frame rate : 31.250 FPS (1536 SPF)
  55. Compression mode : Lossy
  56. Delay relative to video : 1 s 0 ms
  57. Stream size : 310 MiB (8%)
  58. Title : Castellano 5.1
  59. Language : Spanish
  60. Service kind : Complete Main
  61. Default : Yes
  62. Forced : No
  63.  
  64. Audio #2
  65. ID : 3
  66. Format : AC-3
  67. Format/Info : Audio Coding 3
  68. Commercial name : Dolby Digital
  69. Codec ID : A_AC3
  70. Duration : 1 h 36 min
  71. Bit rate mode : Constant
  72. Bit rate : 448 kb/s
  73. Channel(s) : 6 channels
  74. Channel layout : L R C LFE Ls Rs
  75. Sampling rate : 48.0 kHz
  76. Frame rate : 31.250 FPS (1536 SPF)
  77. Compression mode : Lossy
  78. Stream size : 309 MiB (8%)
  79. Title : Ingl├ęs 5.1
  80. Language : English
  81. Service kind : Complete Main
  82. Default : No
  83. Forced : No
  84.  
  85. Text #1
  86. ID : 4
  87. Format : UTF-8
  88. Codec ID : S_TEXT/UTF8
  89. Codec ID/Info : UTF-8 Plain Text
  90. Duration : 1 h 28 min
  91. Bit rate : 46 b/s
  92. Count of elements : 857
  93. Stream size : 30.0 KiB (0%)
  94. Title : Completos
  95. Language : Spanish
  96. Default : Yes
  97. Forced : No
  98.  
  99. Text #2
  100. ID : 5
  101. Format : UTF-8
  102. Codec ID : S_TEXT/UTF8
  103. Codec ID/Info : UTF-8 Plain Text
  104. Duration : 1 h 26 min
  105. Bit rate : 45 b/s
  106. Count of elements : 818
  107. Stream size : 28.8 KiB (0%)
  108. Language : English
  109. Default : No
  110. Forced : No
  111.  
  112. Text #3
  113. ID : 6
  114. Format : UTF-8
  115. Codec ID : S_TEXT/UTF8
  116. Codec ID/Info : UTF-8 Plain Text
  117. Duration : 1 h 27 min
  118. Bit rate : 50 b/s
  119. Count of elements : 973
  120. Stream size : 32.4 KiB (0%)
  121. Title : SDH
  122. Language : English
  123. Default : No
  124. Forced : No
  125.  
  126. Menu
  127. 00:00:00.000 : en:00:00:00.000
  128. 00:07:14.559 : en:00:07:14.559
  129. 00:16:04.672 : en:00:16:04.672
  130. 00:24:17.581 : en:00:24:17.581
  131. 00:32:13.890 : en:00:32:13.890
  132. 00:39:44.299 : en:00:39:44.299
  133. 00:47:37.480 : en:00:47:37.480
  134. 00:56:07.030 : en:00:56:07.030
  135. 01:03:35.186 : en:01:03:35.186
  136. 01:11:51.265 : en:01:11:51.265
  137. 01:19:03.489 : en:01:19:03.489
  138. 01:27:43.258 : en:01:27:43.258
  139.  
  140.  
Advertisement
Add Comment
Please, Sign In to add comment
Advertisement