SHARE
TWEET

Try removing empty data in MP4 video file in FFmpeg

pureocean Jul 12th, 2016 18 Never
Not a member of Pastebin yet? Sign Up, it unlocks many cool features!
  1. ffmpeg version N-80924-gb450b82 Copyright (c) 2000-2016 the FFmpeg developers
  2.   built with gcc 5.4.0 (GCC)
  3.   configuration: --enable-gpl --enable-version3 --disable-w32threads --enable-dxva2 --enable-libmfx --enable-nvenc --enable-avisynth --enable-bzlib --enable-fontconfig --enable-frei0r --enable-gnutls --enable-iconv --enable-libass --enable-libbluray --enable-libbs2b --enable-libcaca --enable-libfreetype --enable-libgme --enable-libgsm --enable-libilbc --enable-libmodplug --enable-libmp3lame --enable-libopencore-amrnb --enable-libopencore-amrwb --enable-libopenjpeg --enable-libopus --enable-librtmp --enable-libschroedinger --enable-libsnappy --enable-libsoxr --enable-libspeex --enable-libtheora --enable-libtwolame --enable-libvidstab --enable-libvo-amrwbenc --enable-libvorbis --enable-libvpx --enable-libwavpack --enable-libwebp --enable-libx264 --enable-libx265 --enable-libxavs --enable-libxvid --enable-libzimg --enable-lzma --enable-decklink --enable-zlib
  4.   libavutil      55. 28.100 / 55. 28.100
  5.   libavcodec     57. 48.103 / 57. 48.103
  6.   libavformat    57. 41.100 / 57. 41.100
  7.   libavdevice    57.  0.102 / 57.  0.102
  8.   libavfilter     6. 47.100 /  6. 47.100
  9.   libswscale      4.  1.100 /  4.  1.100
  10.   libswresample   2.  1.100 /  2.  1.100
  11.   libpostproc    54.  0.100 / 54.  0.100
  12. Input #0, mov,mp4,m4a,3gp,3g2,mj2, from 'TorrentStreamFile.mp4':
  13.   Metadata:
  14.     major_brand     : isom
  15.     minor_version   : 512
  16.     compatible_brands: mp41
  17.     creation_time   : 2016-02-03 16:31:36
  18.     playback_requirements: QuickTime 6.0 or greater
  19.     playback_requirements-eng: QuickTime 6.0 or greater
  20.     encoder         : GOM ENCODER (GMp4Writer 1.0)
  21.     encoder-eng     : GOM ENCODER (GMp4Writer 1.0)
  22.   Duration: 00:19:54.11, start: 0.000000, bitrate: 4228 kb/s
  23.     Stream #0:0(eng): Video: mpeg4 (Simple Profile), 1 reference frame (mp4v / 0x7634706D), yuv420p, 1920x1080 [SAR 1:1 DAR 16:9], 4096 kb/s, 23.98 fps, 23.98 tbr, 2397 tbn, 2997 tbc (default)
  24.     Metadata:
  25.       creation_time   : 2016-02-03 16:31:36
  26.       handler_name    : VideoHandler
  27.     Stream #0:1(eng): Audio: aac (LC) (mp4a / 0x6134706D), 48000 Hz, stereo, fltp, 127 kb/s (default)
  28.     Metadata:
  29.       creation_time   : 2016-02-03 16:31:36
  30.       handler_name    : SoundHandler
  31. [mp4 @ 00000000027b9020] Using AVStream.codec to pass codec parameters to muxers is deprecated, use AVStream.codecpar instead.
  32.     Last message repeated 1 times
  33. Output #0, mp4, to 'Output.mp4':
  34.   Metadata:
  35.     major_brand     : isom
  36.     minor_version   : 512
  37.     compatible_brands: mp41
  38.     encoder         : Lavf57.41.100
  39.     playback_requirements: QuickTime 6.0 or greater
  40.     playback_requirements-eng: QuickTime 6.0 or greater
  41.     Stream #0:0(eng): Video: mpeg4, 1 reference frame ( [0][0][0] / 0x0020), yuv420p, 1920x1080 (0x0) [SAR 1:1 DAR 16:9], q=2-31, 4096 kb/s, 23.98 fps, 23.98 tbr, 19176 tbn, 2397 tbc (default)
  42.     Metadata:
  43.       creation_time   : 2016-02-03 16:31:36
  44.       handler_name    : VideoHandler
  45.     Stream #0:1(eng): Audio: aac (LC) ([64][0][0][0] / 0x0040), 48000 Hz, stereo, 127 kb/s (default)
  46.     Metadata:
  47.       creation_time   : 2016-02-03 16:31:36
  48.       handler_name    : SoundHandler
  49. Stream mapping:
  50.   Stream #0:0 -> #0:0 (copy)
  51.   Stream #0:1 -> #0:1 (copy)
  52. Press [q] to stop, [?] for help
  53. frame= 5595 fps=0.0 q=-1.0 size=  120523kB time=00:03:53.31 bitrate=4231.7kbits/s speed= 467x    
  54. frame= 7906 fps=7709 q=-1.0 size=  169900kB time=00:05:29.68 bitrate=4221.6kbits/s speed= 321x    
  55. frame= 9554 fps=6199 q=-1.0 size=  205741kB time=00:06:38.42 bitrate=4230.3kbits/s speed= 259x    
  56. frame=10895 fps=5204 q=-1.0 size=  234698kB time=00:07:34.35 bitrate=4231.6kbits/s speed= 217x    
  57. frame=11029 fps=4098 q=-1.0 size=  237545kB time=00:07:39.94 bitrate=4230.9kbits/s speed= 171x    
  58. frame=11234 fps=3441 q=-1.0 size=  241921kB time=00:07:48.49 bitrate=4230.2kbits/s speed= 144x    
  59. frame=11420 fps=3017 q=-1.0 size=  245893kB time=00:07:56.24 bitrate=4229.6kbits/s speed= 126x    
  60. [mp4 @ 00000000027b9020] Non-monotonous DTS in output stream 0:0; previous: 9398104, current: 9398104; changing to 9398105. This may result in incorrect timestamps in the output file.
  61. frame=13324 fps=3109 q=-1.0 size=  286722kB time=00:09:15.62 bitrate=4227.4kbits/s speed= 130x    
  62. frame=14606 fps=3051 q=-1.0 size=  314229kB time=00:10:09.09 bitrate=4226.2kbits/s speed= 127x    
  63. frame=14757 fps=2757 q=-1.0 size=  317569kB time=00:10:15.38 bitrate=4227.4kbits/s speed= 115x    
  64. frame=14942 fps=2552 q=-1.0 size=  321475kB time=00:10:23.10 bitrate=4226.5kbits/s speed= 106x    
  65. frame=15168 fps=2366 q=-1.0 size=  326399kB time=00:10:32.53 bitrate=4227.2kbits/s speed=98.7x    
  66. frame=17012 fps=2462 q=-1.0 size=  366037kB time=00:11:49.45 bitrate=4226.6kbits/s speed= 103x    
  67. frame=18690 fps=2521 q=-1.0 size=  401927kB time=00:12:59.43 bitrate=4224.3kbits/s speed= 105x    
  68. frame=18921 fps=2363 q=-1.0 size=  406821kB time=00:13:09.07 bitrate=4223.5kbits/s speed=98.6x    
  69. [mp4 @ 00000000027b9020] Non-monotonous DTS in output stream 0:0; previous: 15624752, current: 15624752; changing to 15624753. This may result in incorrect timestamps in the output file.
  70. frame=19634 fps=2308 q=-1.0 size=  422212kB time=00:13:38.76 bitrate=4224.3kbits/s speed=96.2x    
  71. [mp4 @ 00000000027b9020] Non-monotonous DTS in output stream 0:0; previous: 16861240, current: 16861240; changing to 16861241. This may result in incorrect timestamps in the output file.
  72. frame=21329 fps=2368 q=-1.0 size=  454749kB time=00:14:49.42 bitrate=4188.5kbits/s speed=98.7x    
  73. frame=23206 fps=2441 q=-1.0 size=  494499kB time=00:16:07.71 bitrate=4186.1kbits/s speed= 102x    
  74. frame=23888 fps=2387 q=-1.0 size=  506976kB time=00:16:36.15 bitrate=4169.2kbits/s speed=99.5x    
  75. frame=24480 fps=2299 q=-1.0 size=  514145kB time=00:17:00.85 bitrate=4125.8kbits/s speed=95.9x    
  76. frame=24603 fps=2185 q=-1.0 size=  518370kB time=00:17:05.98 bitrate=4138.9kbits/s speed=91.1x    
  77. frame=25390 fps=2159 q=-1.0 size=  546141kB time=00:17:38.81 bitrate=4225.5kbits/s speed=  90x    
  78. frame=26804 fps=2186 q=-1.0 size=  576618kB time=00:18:37.78 bitrate=4225.9kbits/s speed=91.2x    
  79. No more output streams to write to, finishing.
  80. frame=28633 fps=2230 q=-1.0 Lsize=  616415kB time=00:19:54.13 bitrate=4228.7kbits/s speed=  93x    
  81. video:597167kB audio:18649kB subtitle:0kB other streams:0kB global headers:0kB muxing overhead: 0.097297%
  82. Input file #0 (TorrentStreamFile.mp4):
  83.   Input stream #0:0 (video): 28633 packets read (611499052 bytes);
  84.   Input stream #0:1 (audio): 55961 packets read (19096402 bytes);
  85.   Total: 84594 packets (630595454 bytes) demuxed
  86. Output file #0 (Output.mp4):
  87.   Output stream #0:0 (video): 28633 packets muxed (611499052 bytes);
  88.   Output stream #0:1 (audio): 55961 packets muxed (19096402 bytes);
  89.   Total: 84594 packets (630595454 bytes) muxed
RAW Paste Data
We use cookies for various purposes including analytics. By continuing to use Pastebin, you agree to our use of cookies as described in the Cookies Policy. OK, I Understand
 
Top