yushiro

p.12 Trampas (2009)[Bluray 720p].yus

Feb 22nd, 2021
17
Never
Not a member of Pastebin yet? Sign Up, it unlocks many cool features!
  1. General
  2. Unique ID : 40176607811809285670471684432856593813 (0x1E39BBB3506B29687C3BCDA98B57B595)
  3. Complete name : G:\12 Trampas (2009)[Bluray 720p].mkv
  4. Format : Matroska
  5. Format version : Version 4
  6. File size : 4.98 GiB
  7. Duration : 1 h 49 min
  8. Overall bit rate : 6 496 kb/s
  9. Encoded date : UTC 2021-02-21 23:41:03
  10. Writing application : mkvmerge v51.0.0 ('I Wish') 64-bit
  11. Writing library : libebml v1.4.0 + libmatroska v1.6.2
  12.  
  13. Video
  14. ID : 1
  15. Format : AVC
  16. Format/Info : Advanced Video Codec
  17. Format profile : High@L4.1
  18. Format settings : CABAC / 5 Ref Frames
  19. Format settings, CABAC : Yes
  20. Format settings, Reference : 5 frames
  21. Codec ID : V_MPEG4/ISO/AVC
  22. Duration : 1 h 49 min
  23. Bit rate : 4 201 kb/s
  24. Width : 1 280 pixels
  25. Height : 544 pixels
  26. Display aspect ratio : 2.35:1
  27. Frame rate mode : Constant
  28. Frame rate : 23.976 (24000/1001) FPS
  29. Color space : YUV
  30. Chroma subsampling : 4:2:0
  31. Bit depth : 8 bits
  32. Scan type : Progressive
  33. Bits/(Pixel*Frame) : 0.252
  34. Stream size : 3.22 GiB (65%)
  35. Title : 12 Trampas (2009)[Bluray 720p]
  36. Writing library : x264 core 67 r1173 f6d3166
  37. Encoding settings : cabac=1 / ref=5 / deblock=1:0:0 / analyse=0x3:0x133 / me=umh / subme=7 / psy_rd=1.0:0.0 / mixed_ref=1 / me_range=16 / chroma_me=1 / trellis=1 / 8x8dct=1 / cqm=0 / deadzone=21,11 / chroma_qp_offset=-2 / threads=6 / nr=0 / decimate=1 / mbaff=0 / bframes=3 / b_pyramid=1 / b_adapt=1 / b_bias=0 / direct=1 / wpredb=1 / keyint=250 / keyint_min=25 / scenecut=40 / rc=2pass / bitrate=4201 / ratetol=1.0 / qcomp=0.60 / qpmin=10 / qpmax=51 / qpstep=4 / cplxblur=20.0 / qblur=0.5 / ip_ratio=1.40 / pb_ratio=1.30 / aq=1:1.00
  38. Language : Spanish
  39. Default : Yes
  40. Forced : No
  41.  
  42. Audio #1
  43. ID : 2
  44. Format : DTS
  45. Format/Info : Digital Theater Systems
  46. Codec ID : A_DTS
  47. Duration : 1 h 49 min
  48. Bit rate mode : Constant
  49. Bit rate : 768 kb/s
  50. Channel(s) : 6 channels
  51. Channel layout : C L R Ls Rs LFE
  52. Sampling rate : 48.0 kHz
  53. Frame rate : 93.750 FPS (512 SPF)
  54. Bit depth : 24 bits
  55. Compression mode : Lossy
  56. Stream size : 602 MiB (12%)
  57. Title : Surround DTS 5.1
  58. Language : Spanish
  59. Default : Yes
  60. Forced : No
  61.  
  62. Audio #2
  63. ID : 3
  64. Format : DTS
  65. Format/Info : Digital Theater Systems
  66. Codec ID : A_DTS
  67. Duration : 1 h 49 min
  68. Bit rate mode : Constant
  69. Bit rate : 1 509 kb/s
  70. Channel(s) : 6 channels
  71. Channel layout : C L R Ls Rs LFE
  72. Sampling rate : 48.0 kHz
  73. Frame rate : 93.750 FPS (512 SPF)
  74. Bit depth : 24 bits
  75. Compression mode : Lossy
  76. Stream size : 1.16 GiB (23%)
  77. Title : Inglés DTS 5.1
  78. Language : English
  79. Default : No
  80. Forced : No
  81.  
  82. Text #1
  83. ID : 4
  84. Format : PGS
  85. Muxing mode : zlib
  86. Codec ID : S_HDMV/PGS
  87. Codec ID/Info : Picture based subtitle format used on BDs/HD-DVDs
  88. Duration : 1 h 48 min
  89. Bit rate : 212 b/s
  90. Count of elements : 17
  91. Stream size : 169 KiB (0%)
  92. Title : Forzados
  93. Language : Spanish
  94. Default : No
  95. Forced : Yes
  96.  
  97. Text #2
  98. ID : 5
  99. Format : PGS
  100. Muxing mode : zlib
  101. Codec ID : S_HDMV/PGS
  102. Codec ID/Info : Picture based subtitle format used on BDs/HD-DVDs
  103. Duration : 1 h 48 min
  104. Bit rate : 34.0 kb/s
  105. Count of elements : 2401
  106. Stream size : 26.4 MiB (1%)
  107. Title : Completos
  108. Language : Spanish
  109. Default : No
  110. Forced : No
  111.  
  112. Text #3
  113. ID : 6
  114. Format : UTF-8
  115. Codec ID : S_TEXT/UTF8
  116. Codec ID/Info : UTF-8 Plain Text
  117. Duration : 1 h 46 min
  118. Bit rate : 74 b/s
  119. Count of elements : 1420
  120. Stream size : 58.0 KiB (0%)
  121. Title : Completos
  122. Language : English
  123. Default : Yes
  124. Forced : No
  125.  
  126.  
RAW Paste Data

Adblocker detected! Please consider disabling it...

We've detected AdBlock Plus or some other adblocking software preventing Pastebin.com from fully loading.

We don't have any obnoxious sound, or popup ads, we actively block these annoying types of ads!

Please add Pastebin.com to your ad blocker whitelist or disable your adblocking software.

×