SHARE
TWEET

Raise.Your.Voice.2004.1080p.AMZN.WEB-DL.DDP2.0.x264-ABM

a guest Jun 18th, 2019 24 Never
Not a member of Pastebin yet? Sign Up, it unlocks many cool features!
  1. General
  2. Unique ID                                : 250684399290305137999389780576973150643 (0xBC980F22620A6153AE8A8DE25AB0D9B3)
  3. Complete name                            : Raise.Your.Voice.2004.1080p.AMZN.WEB-DL.DDP2.0.x264-ABM.mkv
  4. Format                                   : Matroska
  5. Format version                           : Version 4
  6. File size                                : 10.1 GiB
  7. Duration                                 : 1 h 46 min
  8. Overall bit rate mode                    : Variable
  9. Overall bit rate                         : 13.5 Mb/s
  10. Encoded date                             : UTC 2018-06-24 18:00:55
  11. Writing application                      : mkvmerge v13.0.0 ('The Juggler') 64bit
  12. Writing library                          : libebml v1.3.4 + libmatroska v1.4.5
  13.  
  14. Video
  15. ID                                       : 1
  16. Format                                   : AVC
  17. Format/Info                              : Advanced Video Codec
  18. Format profile                           : High@L4
  19. Format settings                          : CABAC / 4 Ref Frames
  20. Format settings, CABAC                   : Yes
  21. Format settings, Reference frames        : 4 frames
  22. Codec ID                                 : V_MPEG4/ISO/AVC
  23. Duration                                 : 1 h 46 min
  24. Bit rate mode                            : Variable
  25. Bit rate                                 : 13.3 Mb/s
  26. Maximum bit rate                         : 15.0 Mb/s
  27. Width                                    : 1 920 pixels
  28. Height                                   : 816 pixels
  29. Display aspect ratio                     : 2.35:1
  30. Frame rate mode                          : Constant
  31. Frame rate                               : 23.976 (24000/1001) FPS
  32. Color space                              : YUV
  33. Chroma subsampling                       : 4:2:0
  34. Bit depth                                : 8 bits
  35. Scan type                                : Progressive
  36. Bits/(Pixel*Frame)                       : 0.354
  37. Stream size                              : 9.91 GiB (98%)
  38. Writing library                          : x264 core 148 r2623 d5b2374
  39. Encoding settings                        : cabac=1 / ref=4 / deblock=1:-1:-1 / analyse=0x3:0x133 / me=umh / subme=9 / psy=1 / psy_rd=1.00:0.15 / mixed_ref=1 / me_range=24 / chroma_me=1 / trellis=2 / 8x8dct=1 / cqm=0 / deadzone=21,11 / fast_pskip=1 / chroma_qp_offset=-3 / threads=25 / lookahead_threads=4 / sliced_threads=0 / nr=150 / decimate=1 / interlaced=0 / bluray_compat=0 / constrained_intra=0 / bframes=8 / b_pyramid=2 / b_adapt=2 / b_bias=0 / direct=3 / weightb=1 / open_gop=0 / weightp=2 / keyint=120 / keyint_min=61 / scenecut=0 / intra_refresh=0 / rc_lookahead=120 / rc=crf / mbtree=1 / crf=18.0 / qcomp=0.60 / qpmin=0 / qpmax=69 / qpstep=4 / vbv_maxrate=15000 / vbv_bufsize=31250 / crf_max=0.0 / nal_hrd=vbr / filler=0 / ip_ratio=1.40 / aq=3:1.00
  40. Default                                  : Yes
  41. Forced                                   : No
  42. Color range                              : Limited
  43. Color primaries                          : BT.709
  44. Transfer characteristics                 : BT.709
  45. Matrix coefficients                      : BT.709
  46.  
  47. Audio
  48. ID                                       : 2
  49. Format                                   : E-AC-3
  50. Format/Info                              : Enhanced AC-3
  51. Commercial name                          : Dolby Digital Plus
  52. Codec ID                                 : A_EAC3
  53. Duration                                 : 1 h 46 min
  54. Bit rate mode                            : Constant
  55. Bit rate                                 : 224 kb/s
  56. Channel(s)                               : 2 channels
  57. Channel layout                           : L R
  58. Sampling rate                            : 48.0 kHz
  59. Frame rate                               : 31.250 FPS (1536 SPF)
  60. Compression mode                         : Lossy
  61. Stream size                              : 171 MiB (2%)
  62. Language                                 : English
  63. Service kind                             : Complete Main
  64. Default                                  : Yes
  65. Forced                                   : No
  66.  
  67. Text #1
  68. ID                                       : 3
  69. Format                                   : UTF-8
  70. Codec ID                                 : S_TEXT/UTF8
  71. Codec ID/Info                            : UTF-8 Plain Text
  72. Duration                                 : 1 h 43 min
  73. Bit rate                                 : 60 b/s
  74. Count of elements                        : 1472
  75. Stream size                              : 46.0 KiB (0%)
  76. Language                                 : English
  77. Default                                  : No
  78. Forced                                   : No
  79.  
  80. Text #2
  81. ID                                       : 4
  82. Format                                   : UTF-8
  83. Codec ID                                 : S_TEXT/UTF8
  84. Codec ID/Info                            : UTF-8 Plain Text
  85. Duration                                 : 1 h 44 min
  86. Bit rate                                 : 66 b/s
  87. Count of elements                        : 1620
  88. Stream size                              : 50.9 KiB (0%)
  89. Title                                    : SDH
  90. Language                                 : English
  91. Default                                  : No
  92. Forced                                   : No
  93.  
  94. Menu
  95. 00:00:00.000                             : en:Studio Logos
  96. 00:00:25.000                             : en:Opening Credits, Terri Attends Choir Practice
  97. 00:02:26.000                             : en:Students Celebrate the Last Day of School
  98. 00:04:38.000                             : en:Fletcher Family Has a Graduation Party for Paul
  99. 00:07:47.000                             : en:Paul Films Terri
  100. 00:09:57.000                             : en:Terri Gives Paul His Graduation Gift
  101. 00:10:46.000                             : en:Terri and Paul Head to a Concert
  102. 00:12:16.000                             : en:Terri and Paul Enjoy the Concert
  103. 00:14:27.000                             : en:Terri Awakens
  104. 00:16:16.000                             : en:Terri and Family Cope with Their Loss
  105. 00:17:02.000                             : en:Terri Gets Some News
  106. 00:19:55.000                             : en:Francis Is Still Trying to Cope
  107. 00:22:06.000                             : en:Terri Heads Out
  108. 00:23:31.000                             : en:Terri Arrives in Los Angeles
  109. 00:26:47.000                             : en:Terri Meets Denise and Checks In
  110. 00:29:57.000                             : en:Students Meet Their Teachers
  111. 00:32:50.000                             : en:Mr. Torvald Holds Class
  112. 00:35:24.000                             : en:Terri Gets Used to the School
  113. 00:37:56.000                             : en:Students Attend Classes
  114. 00:39:25.000                             : en:Terri Attends Her Lesson
  115. 00:41:14.000                             : en:Kiwi Tries to Impress Sloane
  116. 00:41:57.000                             : en:Terri Thinks about Paul
  117. 00:44:56.000                             : en:Terri Gets a Phone Call
  118. 00:46:18.000                             : en:Mr. Torvald Tries to Help Terri
  119. 00:50:00.000                             : en:Terri Talks to Jay about Paul
  120. 00:52:17.000                             : en:Terri Starts to Turn Around
  121. 00:54:38.000                             : en:Terri Interrupts Jay
  122. 00:56:44.000                             : en:Kiwi Talks to Jay and Terri about Sloane
  123. 00:59:25.000                             : en:Denise and Terri Talk about Jay
  124. 01:00:12.000                             : en:Francis Comes Home to a Surprise
  125. 01:02:41.000                             : en:Jay and the Group Head Out
  126. 01:05:41.000                             : en:Terri Shows Jay Her Thinking Spot
  127. 01:07:53.000                             : en:Jay and Terri Practice
  128. 01:08:32.000                             : en:Jay Tries to Convince Terri to Perform
  129. 01:11:18.000                             : en:Terri Misses Class and Robin Is Annoyed
  130. 01:13:02.000                             : en:Terri Tries to Apologize While Jay and Robin Talk
  131. 01:15:57.000                             : en:Terri Reflects on the Situation
  132. 01:18:57.000                             : en:Terri and Denise Get a Rude Awakening
  133. 01:22:06.000                             : en:Simon Makes a Discovery While Terri and Jay Practice
  134. 01:25:03.000                             : en:Sloane Tries to Practice
  135. 01:27:08.000                             : en:Terri Makes a Realization
  136. 01:31:37.000                             : en:Jay and Terri Perform
  137. 01:39:18.000                             : en:Simon Apologizes to Terri
  138. 01:41:33.000                             : en:End Credits
RAW Paste Data
We use cookies for various purposes including analytics. By continuing to use Pastebin, you agree to our use of cookies as described in the Cookies Policy. OK, I Understand
 
Top