SHARE
TWEET

Untitled

mft39anton May 30th, 2018 79 Never
Not a member of Pastebin yet? Sign Up, it unlocks many cool features!
  1. Disc Title:     A casa tutti bene.2018.BD
  2. Disc Size:      23,953,780,108 bytes
  3. Protection:     AACS
  4. BD-Java:        Yes
  5. Extras:         50Hz Content
  6. BDInfo:         0.7.3.3
  7.  
  8. Notes:          
  9.  
  10. BDINFO HOME:
  11.   Cinema Squid
  12.     http://www.cinemasquid.com/blu-ray/tools/bdinfo
  13.  
  14. INCLUDES FORUMS REPORT FOR:
  15.   AVS Forum Blu-ray Audio and Video Specifications Thread
  16.     http://www.avsforum.com/avs-vb/showthread.php?t=1155731
  17.  
  18.  
  19. ********************
  20. PLAYLIST: 00003.MPLS
  21. ********************
  22.  
  23. <--- BEGIN FORUMS PASTE --->
  24. [code]
  25.                                                                                                                 Total   Video                                            
  26. Title                                                           Codec   Length  Movie Size      Disc Size       Bitrate Bitrate Main Audio Track                          Secondary Audio Track
  27. -----                                                           ------  ------- --------------  --------------  ------- ------- ------------------                        ---------------------
  28. 00003.MPLS                                                      AVC     1:47:29 22,593,798,144  23,953,780,108  28.03   22.79   DTS-HD Master 5.1 3681Kbps (48kHz/24-bit)
  29. [/code]
  30.  
  31. [code]
  32.  
  33. DISC INFO:
  34.  
  35. Disc Title:     A casa tutti bene.2018.BD
  36. Disc Size:      23,953,780,108 bytes
  37. Protection:     AACS
  38. BD-Java:        Yes
  39. Extras:         50Hz Content
  40. BDInfo:         0.7.3.3
  41.  
  42. PLAYLIST REPORT:
  43.  
  44. Name:                   00003.MPLS
  45. Length:                 1:47:29.291 (h:m:s.ms)
  46. Size:                   22,593,798,144 bytes
  47. Total Bitrate:          28.03 Mbps
  48.  
  49. VIDEO:
  50.  
  51. Codec                   Bitrate             Description    
  52. -----                   -------             -----------    
  53. MPEG-4 AVC Video        22788 kbps          1080p / 24 fps / 16:9 / High Profile 4.1
  54.  
  55. AUDIO:
  56.  
  57. Codec                           Language        Bitrate         Description    
  58. -----                           --------        -------         -----------    
  59. DTS-HD Master Audio             Italian         3681 kbps       5.1 / 48 kHz / 3681 kbps / 24-bit (DTS Core: 5.1 / 48 kHz / 1509 kbps / 24-bit)
  60.  
  61. SUBTITLES:
  62.  
  63. Codec                           Language        Bitrate         Description    
  64. -----                           --------        -------         -----------    
  65. Presentation Graphics           Italian         40.515 kbps                    
  66. Presentation Graphics           English         29.476 kbps                    
  67.  
  68. FILES:
  69.  
  70. Name            Time In         Length          Size            Total Bitrate  
  71. ----            -------         ------          ----            -------------  
  72. 00003.M2TS      0:00:00.000     1:47:29.291     22,593,798,144  28,026          
  73.  
  74. CHAPTERS:
  75.  
  76. Number          Time In         Length          Avg Video Rate  Max 1-Sec Rate  Max 1-Sec Time  Max 5-Sec Rate  Max 5-Sec Time  Max 10Sec Rate  Max 10Sec Time  Avg Frame Size  Max Frame Size  Max Frame Time  
  77. ------          -------         ------          --------------  --------------  --------------  --------------  --------------  --------------  --------------  --------------  --------------  --------------  
  78. 1               0:00:00.000     1:47:29.291     22,788 kbps     61,882 kbps     01:32:51.874    40,059 kbps     00:20:54.125    36,920 kbps     00:29:48.916    118,687 bytes   925,013 bytes   01:32:51.916    
  79.  
  80. STREAM DIAGNOSTICS:
  81.  
  82. File            PID             Type            Codec           Language                Seconds                 Bitrate                 Bytes           Packets        
  83. ----            ---             ----            -----           --------                --------------          --------------          -------------   -----          
  84. 00003.M2TS      4113 (0x1011)   0x1B            AVC                                     6449.208                22,788                  18,370,748,770  99,930,688      
  85. 00003.M2TS      4352 (0x1100)   0x86            DTS-HD MA       ita (Italian)           6449.208                3,681                   2,967,417,592   17,133,028      
  86. 00003.M2TS      4608 (0x1200)   0x90            PGS             ita (Italian)           6449.208                41                      32,661,722      185,717        
  87. 00003.M2TS      4609 (0x1201)   0x90            PGS             eng (English)           6449.208                29                      23,762,400      139,986        
  88.  
  89. [/code]
  90. <---- END FORUMS PASTE ---->
  91.  
  92. QUICK SUMMARY:
  93.  
  94. Disc Title: A casa tutti bene.2018.BD
  95. Disc Size: 23,953,780,108 bytes
  96. Protection: AACS
  97. BD-Java: Yes
  98. Playlist: 00003.MPLS
  99. Size: 22,593,798,144 bytes
  100. Length: 1:47:29.291
  101. Total Bitrate: 28.03 Mbps
  102. Video: MPEG-4 AVC Video / 22788 kbps / 1080p / 24 fps / 16:9 / High Profile 4.1
  103. Audio: Italian / DTS-HD Master Audio / 5.1 / 48 kHz / 3681 kbps / 24-bit (DTS Core: 5.1 / 48 kHz / 1509 kbps / 24-bit)
  104. Subtitle: Italian / 40.515 kbps
  105. Subtitle: English / 29.476 kbps
  106.  
  107.  
  108. ********************
  109. PLAYLIST: 01002.MPLS
  110. ********************
  111.  
  112. <--- BEGIN FORUMS PASTE --->
  113. [code]
  114.                                                                                                                 Total   Video                                            
  115. Title                                                           Codec   Length  Movie Size      Disc Size       Bitrate Bitrate Main Audio Track                          Secondary Audio Track
  116. -----                                                           ------  ------- --------------  --------------  ------- ------- ------------------                        ---------------------
  117. 01002.MPLS                                                      AVC     1:47:29 22,593,798,144  23,953,780,108  28.03   22.79   DTS-HD Master 5.1 3681Kbps (48kHz/24-bit)
  118. [/code]
  119.  
  120. [code]
  121.  
  122. DISC INFO:
  123.  
  124. Disc Title:     A casa tutti bene.2018.BD
  125. Disc Size:      23,953,780,108 bytes
  126. Protection:     AACS
  127. BD-Java:        Yes
  128. Extras:         50Hz Content
  129. BDInfo:         0.7.3.3
  130.  
  131. PLAYLIST REPORT:
  132.  
  133. Name:                   01002.MPLS
  134. Length:                 1:47:29.291 (h:m:s.ms)
  135. Size:                   22,593,798,144 bytes
  136. Total Bitrate:          28.03 Mbps
  137.  
  138. VIDEO:
  139.  
  140. Codec                   Bitrate             Description    
  141. -----                   -------             -----------    
  142. MPEG-4 AVC Video        22788 kbps          1080p / 24 fps / 16:9 / High Profile 4.1
  143.  
  144. AUDIO:
  145.  
  146. Codec                           Language        Bitrate         Description    
  147. -----                           --------        -------         -----------    
  148. DTS-HD Master Audio             Italian         3681 kbps       5.1 / 48 kHz / 3681 kbps / 24-bit (DTS Core: 5.1 / 48 kHz / 1509 kbps / 24-bit)
  149.  
  150. SUBTITLES:
  151.  
  152. Codec                           Language        Bitrate         Description    
  153. -----                           --------        -------         -----------    
  154. Presentation Graphics           Italian         40.515 kbps                    
  155. Presentation Graphics           English         29.476 kbps                    
  156.  
  157. FILES:
  158.  
  159. Name            Time In         Length          Size            Total Bitrate  
  160. ----            -------         ------          ----            -------------  
  161. 00003.M2TS      0:00:00.000     1:47:29.291     22,593,798,144  28,026          
  162.  
  163. CHAPTERS:
  164.  
  165. Number          Time In         Length          Avg Video Rate  Max 1-Sec Rate  Max 1-Sec Time  Max 5-Sec Rate  Max 5-Sec Time  Max 10Sec Rate  Max 10Sec Time  Avg Frame Size  Max Frame Size  Max Frame Time  
  166. ------          -------         ------          --------------  --------------  --------------  --------------  --------------  --------------  --------------  --------------  --------------  --------------  
  167. 1               0:00:00.000     0:08:39.708     21,734 kbps     58,772 kbps     00:06:50.041    39,793 kbps     00:06:29.458    35,581 kbps     00:06:24.916    113,187 bytes   903,153 bytes   00:08:39.708    
  168. 2               0:08:39.708     0:07:12.333     27,078 kbps     50,175 kbps     00:13:11.416    40,012 kbps     00:09:30.250    36,036 kbps     00:09:29.750    141,029 bytes   639,097 bytes   00:13:11.958    
  169. 3               0:15:52.041     0:07:41.999     26,129 kbps     55,842 kbps     00:15:52.166    40,059 kbps     00:20:54.125    35,900 kbps     00:22:47.374    136,089 bytes   804,931 bytes   00:19:44.791    
  170. 4               0:23:34.041     0:06:13.916     27,358 kbps     49,520 kbps     00:25:48.874    39,379 kbps     00:25:47.375    36,088 kbps     00:25:47.374    142,489 bytes   740,412 bytes   00:25:59.250    
  171. 5               0:29:47.958     0:09:29.916     23,416 kbps     57,114 kbps     00:35:53.250    38,794 kbps     00:31:11.625    36,920 kbps     00:29:48.916    121,956 bytes   575,461 bytes   00:29:51.416    
  172. 6               0:39:17.875     0:13:04.125     18,121 kbps     44,716 kbps     00:42:51.958    36,736 kbps     00:41:48.083    36,236 kbps     00:42:58.458    94,379 bytes    490,810 bytes   00:39:27.541    
  173. 7               0:52:22.000     0:13:37.791     28,734 kbps     61,736 kbps     01:03:02.375    39,821 kbps     00:52:34.833    36,408 kbps     00:57:22.333    149,657 bytes   806,788 bytes   00:52:53.750    
  174. 8               1:05:59.791     0:10:20.249     20,665 kbps     59,196 kbps     01:14:40.958    38,524 kbps     01:08:23.791    34,551 kbps     01:08:23.791    107,630 bytes   756,443 bytes   01:08:24.833    
  175. 9               1:16:20.041     0:09:19.166     24,757 kbps     58,023 kbps     01:16:20.041    37,430 kbps     01:16:20.041    34,510 kbps     01:16:20.041    128,943 bytes   651,192 bytes   01:16:20.541    
  176. 10              1:25:39.208     0:08:20.416     16,439 kbps     61,882 kbps     01:32:51.874    39,571 kbps     01:32:48.083    36,013 kbps     01:32:45.583    85,620 bytes    925,013 bytes   01:32:51.916    
  177. 11              1:33:59.625     0:08:42.916     26,400 kbps     54,652 kbps     01:38:58.624    40,039 kbps     01:37:39.541    36,148 kbps     01:34:45.833    137,502 bytes   698,174 bytes   01:40:38.708    
  178. 12              1:42:42.541     0:04:46.750     6,690 kbps      15,126 kbps     01:47:06.708    13,623 kbps     01:47:03.583    13,315 kbps     01:46:58.208    34,847 bytes    178,294 bytes   01:47:07.750    
  179.  
  180. STREAM DIAGNOSTICS:
  181.  
  182. File            PID             Type            Codec           Language                Seconds                 Bitrate                 Bytes           Packets        
  183. ----            ---             ----            -----           --------                --------------          --------------          -------------   -----          
  184. 00003.M2TS      4113 (0x1011)   0x1B            AVC                                     6449.208                22,788                  18,370,748,770  99,930,688      
  185. 00003.M2TS      4352 (0x1100)   0x86            DTS-HD MA       ita (Italian)           6449.208                3,681                   2,967,417,592   17,133,028      
  186. 00003.M2TS      4608 (0x1200)   0x90            PGS             ita (Italian)           6449.208                41                      32,661,722      185,717        
  187. 00003.M2TS      4609 (0x1201)   0x90            PGS             eng (English)           6449.208                29                      23,762,400      139,986        
  188.  
  189. [/code]
  190. <---- END FORUMS PASTE ---->
  191.  
  192. QUICK SUMMARY:
  193.  
  194. Disc Title: A casa tutti bene.2018.BD
  195. Disc Size: 23,953,780,108 bytes
  196. Protection: AACS
  197. BD-Java: Yes
  198. Playlist: 01002.MPLS
  199. Size: 22,593,798,144 bytes
  200. Length: 1:47:29.291
  201. Total Bitrate: 28.03 Mbps
  202. Video: MPEG-4 AVC Video / 22788 kbps / 1080p / 24 fps / 16:9 / High Profile 4.1
  203. Audio: Italian / DTS-HD Master Audio / 5.1 / 48 kHz / 3681 kbps / 24-bit (DTS Core: 5.1 / 48 kHz / 1509 kbps / 24-bit)
  204. Subtitle: Italian / 40.515 kbps
  205. Subtitle: English / 29.476 kbps
  206.  
  207.  
  208. ********************
  209. PLAYLIST: 00005.MPLS
  210. ********************
  211.  
  212. <--- BEGIN FORUMS PASTE --->
  213. [code]
  214.                                                                                                                 Total   Video                                            
  215. Title                                                           Codec   Length  Movie Size      Disc Size       Bitrate Bitrate Main Audio Track                          Secondary Audio Track
  216. -----                                                           ------  ------- --------------  --------------  ------- ------- ------------------                        ---------------------
  217. 00005.MPLS                                                      AVC     0:07:15 927,138,240     23,953,780,108  17.03   16.00   DD AC3 2.0 192Kbps                        
  218. [/code]
  219.  
  220. [code]
  221.  
  222. DISC INFO:
  223.  
  224. Disc Title:     A casa tutti bene.2018.BD
  225. Disc Size:      23,953,780,108 bytes
  226. Protection:     AACS
  227. BD-Java:        Yes
  228. Extras:         50Hz Content
  229. BDInfo:         0.7.3.3
  230.  
  231. PLAYLIST REPORT:
  232.  
  233. Name:                   00005.MPLS
  234. Length:                 0:07:15.520 (h:m:s.ms)
  235. Size:                   927,138,240 bytes
  236. Total Bitrate:          17.03 Mbps
  237.  
  238. VIDEO:
  239.  
  240. Codec                   Bitrate             Description    
  241. -----                   -------             -----------    
  242. MPEG-4 AVC Video        16001 kbps          1080i / 25 fps / 16:9 / High Profile 4.1
  243.  
  244. AUDIO:
  245.  
  246. Codec                           Language        Bitrate         Description    
  247. -----                           --------        -------         -----------    
  248. Dolby Digital Audio             English         192 kbps        2.0 / 48 kHz / 192 kbps / DN -4dB
  249.  
  250. FILES:
  251.  
  252. Name            Time In         Length          Size            Total Bitrate  
  253. ----            -------         ------          ----            -------------  
  254. 00005.M2TS      0:00:00.000     0:07:15.520     927,138,240     17,029          
  255.  
  256. CHAPTERS:
  257.  
  258. Number          Time In         Length          Avg Video Rate  Max 1-Sec Rate  Max 1-Sec Time  Max 5-Sec Rate  Max 5-Sec Time  Max 10Sec Rate  Max 10Sec Time  Avg Frame Size  Max Frame Size  Max Frame Time  
  259. ------          -------         ------          --------------  --------------  --------------  --------------  --------------  --------------  --------------  --------------  --------------  --------------  
  260. 1               0:00:00.000     0:07:15.520     16,003 kbps     43,828 kbps     00:03:59.080    38,269 kbps     00:05:09.320    30,462 kbps     00:05:09.320    80,022 bytes    616,992 bytes   00:03:57.200    
  261.  
  262. STREAM DIAGNOSTICS:
  263.  
  264. File            PID             Type            Codec           Language                Seconds                 Bitrate                 Bytes           Packets        
  265. ----            ---             ----            -----           --------                --------------          --------------          -------------   -----          
  266. 00005.M2TS      4113 (0x1011)   0x1B            AVC                                     435.440                 16,006                  871,198,167     4,741,424      
  267. 00005.M2TS      4352 (0x1100)   0x81            AC3             eng (English)           435.440                 192                     10,452,480      68,050          
  268.  
  269. [/code]
  270. <---- END FORUMS PASTE ---->
  271.  
  272. QUICK SUMMARY:
  273.  
  274. Disc Title: A casa tutti bene.2018.BD
  275. Disc Size: 23,953,780,108 bytes
  276. Protection: AACS
  277. BD-Java: Yes
  278. Playlist: 00005.MPLS
  279. Size: 927,138,240 bytes
  280. Length: 0:07:15.520
  281. Total Bitrate: 17.03 Mbps
  282. Video: MPEG-4 AVC Video / 16001 kbps / 1080i / 25 fps / 16:9 / High Profile 4.1
  283. Audio: English / Dolby Digital Audio / 2.0 / 48 kHz / 192 kbps / DN -4dB
  284.  
  285.  
  286. ********************
  287. PLAYLIST: 01004.MPLS
  288. ********************
  289.  
  290. <--- BEGIN FORUMS PASTE --->
  291. [code]
  292.                                                                                                                 Total   Video                                            
  293. Title                                                           Codec   Length  Movie Size      Disc Size       Bitrate Bitrate Main Audio Track                          Secondary Audio Track
  294. -----                                                           ------  ------- --------------  --------------  ------- ------- ------------------                        ---------------------
  295. 01004.MPLS                                                      AVC     0:07:15 927,138,240     23,953,780,108  17.03   16.00   DD AC3 2.0 192Kbps                        
  296. [/code]
  297.  
  298. [code]
  299.  
  300. DISC INFO:
  301.  
  302. Disc Title:     A casa tutti bene.2018.BD
  303. Disc Size:      23,953,780,108 bytes
  304. Protection:     AACS
  305. BD-Java:        Yes
  306. Extras:         50Hz Content
  307. BDInfo:         0.7.3.3
  308.  
  309. PLAYLIST REPORT:
  310.  
  311. Name:                   01004.MPLS
  312. Length:                 0:07:15.520 (h:m:s.ms)
  313. Size:                   927,138,240 bytes
  314. Total Bitrate:          17.03 Mbps
  315.  
  316. VIDEO:
  317.  
  318. Codec                   Bitrate             Description    
  319. -----                   -------             -----------    
  320. MPEG-4 AVC Video        16001 kbps          1080i / 25 fps / 16:9 / High Profile 4.1
  321.  
  322. AUDIO:
  323.  
  324. Codec                           Language        Bitrate         Description    
  325. -----                           --------        -------         -----------    
  326. Dolby Digital Audio             English         192 kbps        2.0 / 48 kHz / 192 kbps / DN -4dB
  327.  
  328. FILES:
  329.  
  330. Name            Time In         Length          Size            Total Bitrate  
  331. ----            -------         ------          ----            -------------  
  332. 00005.M2TS      0:00:00.000     0:07:15.520     927,138,240     17,029          
  333.  
  334. CHAPTERS:
  335.  
  336. Number          Time In         Length          Avg Video Rate  Max 1-Sec Rate  Max 1-Sec Time  Max 5-Sec Rate  Max 5-Sec Time  Max 10Sec Rate  Max 10Sec Time  Avg Frame Size  Max Frame Size  Max Frame Time  
  337. ------          -------         ------          --------------  --------------  --------------  --------------  --------------  --------------  --------------  --------------  --------------  --------------  
  338. 1               0:00:00.000     0:07:15.520     16,003 kbps     43,828 kbps     00:03:59.080    38,269 kbps     00:05:09.320    30,462 kbps     00:05:09.320    80,022 bytes    616,992 bytes   00:03:57.200    
  339.  
  340. STREAM DIAGNOSTICS:
  341.  
  342. File            PID             Type            Codec           Language                Seconds                 Bitrate                 Bytes           Packets        
  343. ----            ---             ----            -----           --------                --------------          --------------          -------------   -----          
  344. 00005.M2TS      4113 (0x1011)   0x1B            AVC                                     435.440                 16,006                  871,198,167     4,741,424      
  345. 00005.M2TS      4352 (0x1100)   0x81            AC3             eng (English)           435.440                 192                     10,452,480      68,050          
  346.  
  347. [/code]
  348. <---- END FORUMS PASTE ---->
  349.  
  350. QUICK SUMMARY:
  351.  
  352. Disc Title: A casa tutti bene.2018.BD
  353. Disc Size: 23,953,780,108 bytes
  354. Protection: AACS
  355. BD-Java: Yes
  356. Playlist: 01004.MPLS
  357. Size: 927,138,240 bytes
  358. Length: 0:07:15.520
  359. Total Bitrate: 17.03 Mbps
  360. Video: MPEG-4 AVC Video / 16001 kbps / 1080i / 25 fps / 16:9 / High Profile 4.1
  361. Audio: English / Dolby Digital Audio / 2.0 / 48 kHz / 192 kbps / DN -4dB
  362.  
  363.  
  364. ********************
  365. PLAYLIST: 00004.MPLS
  366. ********************
  367.  
  368. <--- BEGIN FORUMS PASTE --->
  369. [code]
  370.                                                                                                                 Total   Video                                            
  371. Title                                                           Codec   Length  Movie Size      Disc Size       Bitrate Bitrate Main Audio Track                          Secondary Audio Track
  372. -----                                                           ------  ------- --------------  --------------  ------- ------- ------------------                        ---------------------
  373. 00004.MPLS                                                      AVC     0:01:55 264,919,488     23,953,780,108  18.31   17.00   DD AC3 5.1 448Kbps                        
  374. [/code]
  375.  
  376. [code]
  377.  
  378. DISC INFO:
  379.  
  380. Disc Title:     A casa tutti bene.2018.BD
  381. Disc Size:      23,953,780,108 bytes
  382. Protection:     AACS
  383. BD-Java:        Yes
  384. Extras:         50Hz Content
  385. BDInfo:         0.7.3.3
  386.  
  387. PLAYLIST REPORT:
  388.  
  389. Name:                   00004.MPLS
  390. Length:                 0:01:55.720 (h:m:s.ms)
  391. Size:                   264,919,488 bytes
  392. Total Bitrate:          18.31 Mbps
  393.  
  394. VIDEO:
  395.  
  396. Codec                   Bitrate             Description    
  397. -----                   -------             -----------    
  398. MPEG-4 AVC Video        16997 kbps          1080i / 25 fps / 16:9 / High Profile 4.1
  399.  
  400. AUDIO:
  401.  
  402. Codec                           Language        Bitrate         Description    
  403. -----                           --------        -------         -----------    
  404. Dolby Digital Audio             Italian         448 kbps        5.1 / 48 kHz / 448 kbps / DN -4dB
  405.  
  406. FILES:
  407.  
  408. Name            Time In         Length          Size            Total Bitrate  
  409. ----            -------         ------          ----            -------------  
  410. 00004.M2TS      0:00:00.000     0:01:55.720     264,919,488     18,308          
  411.  
  412. CHAPTERS:
  413.  
  414. Number          Time In         Length          Avg Video Rate  Max 1-Sec Rate  Max 1-Sec Time  Max 5-Sec Rate  Max 5-Sec Time  Max 10Sec Rate  Max 10Sec Time  Avg Frame Size  Max Frame Size  Max Frame Time  
  415. ------          -------         ------          --------------  --------------  --------------  --------------  --------------  --------------  --------------  --------------  --------------  --------------  
  416. 1               0:00:00.000     0:01:55.720     17,003 kbps     41,816 kbps     00:01:32.520    26,394 kbps     00:01:05.560    24,569 kbps     00:00:06.880    85,044 bytes    799,730 bytes   00:01:33.080    
  417.  
  418. STREAM DIAGNOSTICS:
  419.  
  420. File            PID             Type            Codec           Language                Seconds                 Bitrate                 Bytes           Packets        
  421. ----            ---             ----            -----           --------                --------------          --------------          -------------   -----          
  422. 00004.M2TS      4113 (0x1011)   0x1B            AVC                                     115.640                 17,015                  245,950,128     1,338,456      
  423. 00004.M2TS      4352 (0x1100)   0x81            AC3             ita (Italian)           115.640                 448                     6,481,664       36,170          
  424.  
  425. [/code]
  426. <---- END FORUMS PASTE ---->
  427.  
  428. QUICK SUMMARY:
  429.  
  430. Disc Title: A casa tutti bene.2018.BD
  431. Disc Size: 23,953,780,108 bytes
  432. Protection: AACS
  433. BD-Java: Yes
  434. Playlist: 00004.MPLS
  435. Size: 264,919,488 bytes
  436. Length: 0:01:55.720
  437. Total Bitrate: 18.31 Mbps
  438. Video: MPEG-4 AVC Video / 16997 kbps / 1080i / 25 fps / 16:9 / High Profile 4.1
  439. Audio: Italian / Dolby Digital Audio / 5.1 / 48 kHz / 448 kbps / DN -4dB
  440.  
  441.  
  442. ********************
  443. PLAYLIST: 01003.MPLS
  444. ********************
  445.  
  446. <--- BEGIN FORUMS PASTE --->
  447. [code]
  448.                                                                                                                 Total   Video                                            
  449. Title                                                           Codec   Length  Movie Size      Disc Size       Bitrate Bitrate Main Audio Track                          Secondary Audio Track
  450. -----                                                           ------  ------- --------------  --------------  ------- ------- ------------------                        ---------------------
  451. 01003.MPLS                                                      AVC     0:01:55 264,919,488     23,953,780,108  18.31   17.00   DD AC3 5.1 448Kbps                        
  452. [/code]
  453.  
  454. [code]
  455.  
  456. DISC INFO:
  457.  
  458. Disc Title:     A casa tutti bene.2018.BD
  459. Disc Size:      23,953,780,108 bytes
  460. Protection:     AACS
  461. BD-Java:        Yes
  462. Extras:         50Hz Content
  463. BDInfo:         0.7.3.3
  464.  
  465. PLAYLIST REPORT:
  466.  
  467. Name:                   01003.MPLS
  468. Length:                 0:01:55.720 (h:m:s.ms)
  469. Size:                   264,919,488 bytes
  470. Total Bitrate:          18.31 Mbps
  471.  
  472. VIDEO:
  473.  
  474. Codec                   Bitrate             Description    
  475. -----                   -------             -----------    
  476. MPEG-4 AVC Video        16997 kbps          1080i / 25 fps / 16:9 / High Profile 4.1
  477.  
  478. AUDIO:
  479.  
  480. Codec                           Language        Bitrate         Description    
  481. -----                           --------        -------         -----------    
  482. Dolby Digital Audio             Italian         448 kbps        5.1 / 48 kHz / 448 kbps / DN -4dB
  483.  
  484. FILES:
  485.  
  486. Name            Time In         Length          Size            Total Bitrate  
  487. ----            -------         ------          ----            -------------  
  488. 00004.M2TS      0:00:00.000     0:01:55.720     264,919,488     18,308          
  489.  
  490. CHAPTERS:
  491.  
  492. Number          Time In         Length          Avg Video Rate  Max 1-Sec Rate  Max 1-Sec Time  Max 5-Sec Rate  Max 5-Sec Time  Max 10Sec Rate  Max 10Sec Time  Avg Frame Size  Max Frame Size  Max Frame Time  
  493. ------          -------         ------          --------------  --------------  --------------  --------------  --------------  --------------  --------------  --------------  --------------  --------------  
  494. 1               0:00:00.000     0:01:55.720     17,003 kbps     41,816 kbps     00:01:32.520    26,394 kbps     00:01:05.560    24,569 kbps     00:00:06.880    85,044 bytes    799,730 bytes   00:01:33.080    
  495.  
  496. STREAM DIAGNOSTICS:
  497.  
  498. File            PID             Type            Codec           Language                Seconds                 Bitrate                 Bytes           Packets        
  499. ----            ---             ----            -----           --------                --------------          --------------          -------------   -----          
  500. 00004.M2TS      4113 (0x1011)   0x1B            AVC                                     115.640                 17,015                  245,950,128     1,338,456      
  501. 00004.M2TS      4352 (0x1100)   0x81            AC3             ita (Italian)           115.640                 448                     6,481,664       36,170          
  502.  
  503. [/code]
  504. <---- END FORUMS PASTE ---->
  505.  
  506. QUICK SUMMARY:
  507.  
  508. Disc Title: A casa tutti bene.2018.BD
  509. Disc Size: 23,953,780,108 bytes
  510. Protection: AACS
  511. BD-Java: Yes
  512. Playlist: 01003.MPLS
  513. Size: 264,919,488 bytes
  514. Length: 0:01:55.720
  515. Total Bitrate: 18.31 Mbps
  516. Video: MPEG-4 AVC Video / 16997 kbps / 1080i / 25 fps / 16:9 / High Profile 4.1
  517. Audio: Italian / Dolby Digital Audio / 5.1 / 48 kHz / 448 kbps / DN -4dB
  518.  
  519.  
  520. ********************
  521. PLAYLIST: 00002.MPLS
  522. ********************
  523.  
  524. <--- BEGIN FORUMS PASTE --->
  525. [code]
  526.                                                                                                                 Total   Video                                            
  527. Title                                                           Codec   Length  Movie Size      Disc Size       Bitrate Bitrate Main Audio Track                          Secondary Audio Track
  528. -----                                                           ------  ------- --------------  --------------  ------- ------- ------------------                        ---------------------
  529. 00002.MPLS                                                      AVC     0:00:52 137,490,432     23,953,780,108  21.15   19.95   DD AC3 2.0 192Kbps                        
  530. [/code]
  531.  
  532. [code]
  533.  
  534. DISC INFO:
  535.  
  536. Disc Title:     A casa tutti bene.2018.BD
  537. Disc Size:      23,953,780,108 bytes
  538. Protection:     AACS
  539. BD-Java:        Yes
  540. Extras:         50Hz Content
  541. BDInfo:         0.7.3.3
  542.  
  543. PLAYLIST REPORT:
  544.  
  545. Name:                   00002.MPLS
  546. Length:                 0:00:52.000 (h:m:s.ms)
  547. Size:                   137,490,432 bytes
  548. Total Bitrate:          21.15 Mbps
  549.  
  550. VIDEO:
  551.  
  552. Codec                   Bitrate             Description    
  553. -----                   -------             -----------    
  554. MPEG-4 AVC Video        19954 kbps          1080p / 24 fps / 16:9 / High Profile 4.1
  555.  
  556. AUDIO:
  557.  
  558. Codec                           Language        Bitrate         Description    
  559. -----                           --------        -------         -----------    
  560. Dolby Digital Audio             Undetermined    192 kbps        2.0 / 48 kHz / 192 kbps / DN -4dB
  561.  
  562. FILES:
  563.  
  564. Name            Time In         Length          Size            Total Bitrate  
  565. ----            -------         ------          ----            -------------  
  566. 00002.M2TS      0:00:00.000     0:00:52.000     137,490,432     21,152          
  567.  
  568. CHAPTERS:
  569.  
  570. Number          Time In         Length          Avg Video Rate  Max 1-Sec Rate  Max 1-Sec Time  Max 5-Sec Rate  Max 5-Sec Time  Max 10Sec Rate  Max 10Sec Time  Avg Frame Size  Max Frame Size  Max Frame Time  
  571. ------          -------         ------          --------------  --------------  --------------  --------------  --------------  --------------  --------------  --------------  --------------  --------------  
  572. 1               0:00:00.000     0:00:52.000     19,954 kbps     42,234 kbps     00:00:09.166    35,670 kbps     00:00:26.375    28,801 kbps     00:00:24.875    103,929 bytes   570,024 bytes   00:00:09.916    
  573.  
  574. STREAM DIAGNOSTICS:
  575.  
  576. File            PID             Type            Codec           Language                Seconds                 Bitrate                 Bytes           Packets        
  577. ----            ---             ----            -----           --------                --------------          --------------          -------------   -----          
  578. 00002.M2TS      4113 (0x1011)   0x1B            AVC                                     51.875                  20,003                  129,703,717     705,637        
  579. 00002.M2TS      4352 (0x1100)   0x81            AC3             und (Undetermined)      51.875                  192                     1,248,000       8,125          
  580.  
  581. [/code]
  582. <---- END FORUMS PASTE ---->
  583.  
  584. QUICK SUMMARY:
  585.  
  586. Disc Title: A casa tutti bene.2018.BD
  587. Disc Size: 23,953,780,108 bytes
  588. Protection: AACS
  589. BD-Java: Yes
  590. Playlist: 00002.MPLS
  591. Size: 137,490,432 bytes
  592. Length: 0:00:52.000
  593. Total Bitrate: 21.15 Mbps
  594. Video: MPEG-4 AVC Video / 19954 kbps / 1080p / 24 fps / 16:9 / High Profile 4.1
  595. Audio: Undetermined / Dolby Digital Audio / 2.0 / 48 kHz / 192 kbps / DN -4dB
  596.  
  597.  
  598. ********************
  599. PLAYLIST: 01001.MPLS
  600. ********************
  601.  
  602. <--- BEGIN FORUMS PASTE --->
  603. [code]
  604.                                                                                                                 Total   Video                                            
  605. Title                                                           Codec   Length  Movie Size      Disc Size       Bitrate Bitrate Main Audio Track                          Secondary Audio Track
  606. -----                                                           ------  ------- --------------  --------------  ------- ------- ------------------                        ---------------------
  607. 01001.MPLS                                                      AVC     0:00:52 137,490,432     23,953,780,108  21.15   19.95   DD AC3 2.0 192Kbps                        
  608. [/code]
  609.  
  610. [code]
  611.  
  612. DISC INFO:
  613.  
  614. Disc Title:     A casa tutti bene.2018.BD
  615. Disc Size:      23,953,780,108 bytes
  616. Protection:     AACS
  617. BD-Java:        Yes
  618. Extras:         50Hz Content
  619. BDInfo:         0.7.3.3
  620.  
  621. PLAYLIST REPORT:
  622.  
  623. Name:                   01001.MPLS
  624. Length:                 0:00:52.000 (h:m:s.ms)
  625. Size:                   137,490,432 bytes
  626. Total Bitrate:          21.15 Mbps
  627.  
  628. VIDEO:
  629.  
  630. Codec                   Bitrate             Description    
  631. -----                   -------             -----------    
  632. MPEG-4 AVC Video        19954 kbps          1080p / 24 fps / 16:9 / High Profile 4.1
  633.  
  634. AUDIO:
  635.  
  636. Codec                           Language        Bitrate         Description    
  637. -----                           --------        -------         -----------    
  638. Dolby Digital Audio             Undetermined    192 kbps        2.0 / 48 kHz / 192 kbps / DN -4dB
  639.  
  640. FILES:
  641.  
  642. Name            Time In         Length          Size            Total Bitrate  
  643. ----            -------         ------          ----            -------------  
  644. 00002.M2TS      0:00:00.000     0:00:52.000     137,490,432     21,152          
  645.  
  646. CHAPTERS:
  647.  
  648. Number          Time In         Length          Avg Video Rate  Max 1-Sec Rate  Max 1-Sec Time  Max 5-Sec Rate  Max 5-Sec Time  Max 10Sec Rate  Max 10Sec Time  Avg Frame Size  Max Frame Size  Max Frame Time  
  649. ------          -------         ------          --------------  --------------  --------------  --------------  --------------  --------------  --------------  --------------  --------------  --------------  
  650. 1               0:00:00.000     0:00:00.416     22,446 kbps     0 kbps          00:00:00.000    0 kbps          00:00:00.000    0 kbps          00:00:00.000    106,278 bytes   302,886 bytes   00:00:00.000    
  651. 2               0:00:00.416     0:00:51.583     19,934 kbps     42,234 kbps     00:00:09.166    35,670 kbps     00:00:26.375    28,801 kbps     00:00:24.875    103,908 bytes   570,024 bytes   00:00:09.916    
  652.  
  653. STREAM DIAGNOSTICS:
  654.  
  655. File            PID             Type            Codec           Language                Seconds                 Bitrate                 Bytes           Packets        
  656. ----            ---             ----            -----           --------                --------------          --------------          -------------   -----          
  657. 00002.M2TS      4113 (0x1011)   0x1B            AVC                                     51.875                  20,003                  129,703,717     705,637        
  658. 00002.M2TS      4352 (0x1100)   0x81            AC3             und (Undetermined)      51.875                  192                     1,248,000       8,125          
  659.  
  660. [/code]
  661. <---- END FORUMS PASTE ---->
  662.  
  663. QUICK SUMMARY:
  664.  
  665. Disc Title: A casa tutti bene.2018.BD
  666. Disc Size: 23,953,780,108 bytes
  667. Protection: AACS
  668. BD-Java: Yes
  669. Playlist: 01001.MPLS
  670. Size: 137,490,432 bytes
  671. Length: 0:00:52.000
  672. Total Bitrate: 21.15 Mbps
  673. Video: MPEG-4 AVC Video / 19954 kbps / 1080p / 24 fps / 16:9 / High Profile 4.1
  674. Audio: Undetermined / Dolby Digital Audio / 2.0 / 48 kHz / 192 kbps / DN -4dB
  675.  
  676.  
  677. ********************
  678. PLAYLIST: 01000.MPLS
  679. ********************
  680.  
  681. <--- BEGIN FORUMS PASTE --->
  682. [code]
  683.                                                                                                                 Total   Video                                            
  684. Title                                                           Codec   Length  Movie Size      Disc Size       Bitrate Bitrate Main Audio Track                          Secondary Audio Track
  685. -----                                                           ------  ------- --------------  --------------  ------- ------- ------------------                        ---------------------
  686. 01000.MPLS                                                      AVC     0:00:27 26,621,952      23,953,780,108  7.85    7.15    DD AC3 5.1 448Kbps                        
  687. [/code]
  688.  
  689. [code]
  690.  
  691. DISC INFO:
  692.  
  693. Disc Title:     A casa tutti bene.2018.BD
  694. Disc Size:      23,953,780,108 bytes
  695. Protection:     AACS
  696. BD-Java:        Yes
  697. Extras:         50Hz Content
  698. BDInfo:         0.7.3.3
  699.  
  700. PLAYLIST REPORT:
  701.  
  702. Name:                   01000.MPLS
  703. Length:                 0:00:27.125 (h:m:s.ms)
  704. Size:                   26,621,952 bytes
  705. Total Bitrate:          7.85 Mbps
  706.  
  707. VIDEO:
  708.  
  709. Codec                   Bitrate             Description    
  710. -----                   -------             -----------    
  711. MPEG-4 AVC Video        7149 kbps           1080p / 24 fps / 16:9 / High Profile 4.1
  712.  
  713. AUDIO:
  714.  
  715. Codec                           Language        Bitrate         Description    
  716. -----                           --------        -------         -----------    
  717. Dolby Digital Audio             Italian         448 kbps        5.1 / 48 kHz / 448 kbps / DN -4dB
  718.  
  719. SUBTITLES:
  720.  
  721. Codec                           Language        Bitrate         Description    
  722. -----                           --------        -------         -----------    
  723. Presentation Graphics           Italian         0.006 kbps                      
  724.  
  725. FILES:
  726.  
  727. Name            Time In         Length          Size            Total Bitrate  
  728. ----            -------         ------          ----            -------------  
  729. 00000.M2TS      0:00:00.000     0:00:17.125     23,808,000      11,122          
  730. 00001.M2TS      0:00:17.125     0:00:10.000     2,813,952       2,251          
  731.  
  732. CHAPTERS:
  733.  
  734. Number          Time In         Length          Avg Video Rate  Max 1-Sec Rate  Max 1-Sec Time  Max 5-Sec Rate  Max 5-Sec Time  Max 10Sec Rate  Max 10Sec Time  Avg Frame Size  Max Frame Size  Max Frame Time  
  735. ------          -------         ------          --------------  --------------  --------------  --------------  --------------  --------------  --------------  --------------  --------------  --------------  
  736. 1               0:00:00.000     0:00:17.125     10,110 kbps     37,049 kbps     00:00:05.708    23,609 kbps     00:00:05.041    16,296 kbps     00:00:01.625    52,530 bytes    329,393 bytes   00:00:06.500    
  737. 2               0:00:17.125     0:00:10.000     2,078 kbps      4,211 kbps      00:00:17.125    2,342 kbps      00:00:17.166    0 kbps          00:00:00.000    10,868 bytes    116,056 bytes   00:00:17.666    
  738.  
  739. STREAM DIAGNOSTICS:
  740.  
  741. File            PID             Type            Codec           Language                Seconds                 Bitrate                 Bytes           Packets        
  742. ----            ---             ----            -----           --------                --------------          --------------          -------------   -----          
  743. 00000.M2TS      4113 (0x1011)   0x1B            AVC                                     16.958                  10,209                  21,640,043      117,838        
  744. 00000.M2TS      4352 (0x1100)   0x81            AC3             ita (Italian)           16.958                  453                     960,512         5,360          
  745. 00000.M2TS      4608 (0x1200)   0x90            PGS             ita (Italian)           16.958                  0                       22              1              
  746. 00001.M2TS      4113 (0x1011)   0x1B            AVC                                     9.917                   2,097                   2,599,990       14,212          
  747.  
  748. [/code]
  749. <---- END FORUMS PASTE ---->
  750.  
  751. QUICK SUMMARY:
  752.  
  753. Disc Title: A casa tutti bene.2018.BD
  754. Disc Size: 23,953,780,108 bytes
  755. Protection: AACS
  756. BD-Java: Yes
  757. Playlist: 01000.MPLS
  758. Size: 26,621,952 bytes
  759. Length: 0:00:27.125
  760. Total Bitrate: 7.85 Mbps
  761. Video: MPEG-4 AVC Video / 7149 kbps / 1080p / 24 fps / 16:9 / High Profile 4.1
  762. Audio: Italian / Dolby Digital Audio / 5.1 / 48 kHz / 448 kbps / DN -4dB
  763. Subtitle: Italian / 0.006 kbps
RAW Paste Data
We use cookies for various purposes including analytics. By continuing to use Pastebin, you agree to our use of cookies as described in the Cookies Policy. OK, I Understand
Not a member of Pastebin yet?
Sign Up, it unlocks many cool features!
 
Top