SHARE
TWEET

Dragged Across Concrete BluRay 720p

dirtyharrys Mar 26th, 2019 (edited) 62 Never
Not a member of Pastebin yet? Sign Up, it unlocks many cool features!
  1. General
  2. Unique ID                   : 333514536219985258157083992194964382127 (0xFAE8902F265A574A21B49AD1C755E1AF)
  3. Complete name               : E:\QlJSRHJhZ2dlZEFjcm9zc0NvbmNyZXRl.mkv
  4. Format                      : Matroska
  5. Format version              : Version 4
  6. File size                   : 2.51 GiB
  7. Duration                    : 2 h 38 min
  8. Overall bit rate            : 2 268 kb/s
  9. Movie name                  : Dragged Across Concrete BR-RIP / Dragged Across Concrete BR-RIP
  10. Encoded date                : UTC 2019-05-03 08:05:01
  11. Writing application         : mkvmerge v30.1.0 ('Forever And More') 32-bit
  12. Writing library             : libebml v1.3.6 + libmatroska v1.4.9
  13. Copyright                   : Movies HDs 2019
  14. ARTIST                      : HarshLearner
  15.  
  16. Video
  17. ID                          : 1
  18. Format                      : AVC
  19. Format/Info                 : Advanced Video Codec
  20. Format profile              : High@L4.1
  21. Format settings             : CABAC / 4 Ref Frames
  22. Format settings, CABAC      : Yes
  23. Format settings, ReFrames   : 4 frames
  24. Codec ID                    : V_MPEG4/ISO/AVC
  25. Duration                    : 2 h 38 min
  26. Bit rate                    : 1 500 kb/s
  27. Width                       : 1 280 pixels
  28. Height                      : 534 pixels
  29. Display aspect ratio        : 2.40:1
  30. Frame rate mode             : Constant
  31. Frame rate                  : 23.976 (24000/1001) FPS
  32. Original frame rate         : 23.976 (23976/1000) FPS
  33. Color space                 : YUV
  34. Chroma subsampling          : 4:2:0
  35. Bit depth                   : 8 bits
  36. Scan type                   : Progressive
  37. Bits/(Pixel*Frame)          : 0.092
  38. Stream size                 : 1.66 GiB (66%)
  39. Title                       : Dragged Across Concrete
  40. Writing library             : x264 core 152 r2851M ba24899
  41. Default                     : Yes
  42. Forced                      : No
  43.  
  44. Audio #1
  45. ID                          : 2
  46. Format                      : AC-3
  47. Format/Info                 : Audio Coding 3
  48. Commercial name             : Dolby Digital
  49. Codec ID                    : A_AC3
  50. Duration                    : 2 h 38 min
  51. Bit rate mode               : Constant
  52. Bit rate                    : 384 kb/s
  53. Channel(s)                  : 6 channels
  54. Channel layout              : L R C LFE Ls Rs
  55. Sampling rate               : 48.0 kHz
  56. Frame rate                  : 31.250 FPS (1536 SPF)
  57. Bit depth                   : 16 bits
  58. Compression mode            : Lossy
  59. Stream size                 : 435 MiB (17%)
  60. Language                    : English
  61. Service kind                : Complete Main
  62. Default                     : No
  63. Forced                      : No
  64.  
  65. Audio #2
  66. ID                          : 3
  67. Format                      : AC-3
  68. Format/Info                 : Audio Coding 3
  69. Commercial name             : Dolby Digital
  70. Codec ID                    : A_AC3
  71. Duration                    : 2 h 38 min
  72. Bit rate mode               : Constant
  73. Bit rate                    : 384 kb/s
  74. Channel(s)                  : 6 channels
  75. Channel layout              : L R C LFE Ls Rs
  76. Sampling rate               : 48.0 kHz
  77. Frame rate                  : 31.250 FPS (1536 SPF)
  78. Bit depth                   : 16 bits
  79. Compression mode            : Lossy
  80. Stream size                 : 435 MiB (17%)
  81. Language                    : Spanish
  82. Service kind                : Complete Main
  83. Default                     : Yes
  84. Forced                      : Yes
  85.  
  86. Text #1
  87. ID                          : 4
  88. Format                      : UTF-8
  89. Codec ID                    : S_TEXT/UTF8
  90. Codec ID/Info               : UTF-8 Plain Text
  91. Duration                    : 2 h 28 min
  92. Bit rate                    : 45 b/s
  93. Count of elements           : 1548
  94. Stream size                 : 49.3 KiB (0%)
  95. Language                    : English
  96. Default                     : No
  97. Forced                      : No
  98.  
  99. Text #2
  100. ID                          : 5
  101. Format                      : UTF-8
  102. Codec ID                    : S_TEXT/UTF8
  103. Codec ID/Info               : UTF-8 Plain Text
  104. Duration                    : 2 h 28 min
  105. Bit rate                    : 47 b/s
  106. Count of elements           : 1655
  107. Stream size                 : 51.7 KiB (0%)
  108. Language                    : English
  109. Default                     : No
  110. Forced                      : No
  111.  
  112. Text #3
  113. ID                          : 6
  114. Format                      : UTF-8
  115. Codec ID                    : S_TEXT/UTF8
  116. Codec ID/Info               : UTF-8 Plain Text
  117. Duration                    : 2 h 28 min
  118. Bit rate                    : 50 b/s
  119. Count of elements           : 1626
  120. Stream size                 : 54.8 KiB (0%)
  121. Language                    : Spanish
  122. Default                     : Yes
  123. Forced                      : Yes
  124.  
  125. Text #4
  126. ID                          : 7
  127. Format                      : UTF-8
  128. Codec ID                    : S_TEXT/UTF8
  129. Codec ID/Info               : UTF-8 Plain Text
  130. Duration                    : 2 h 16 min
  131. Bit rate                    : 0 b/s
  132. Count of elements           : 8
  133. Stream size                 : 252 Bytes (0%)
  134. Language                    : Spanish
  135. Default                     : No
  136. Forced                      : No
  137.  
  138. Menu
  139. 00:00:00.000                : :Chapter 01
  140. 00:09:32.113                : :Chapter 02
  141. 00:19:30.920                : :Chapter 03
  142. 00:27:22.558                : :Chapter 04
  143. 00:35:24.622                : :Chapter 05
  144. 00:43:50.503                : :Chapter 06
  145. 00:55:01.381                : :Chapter 07
  146. 01:04:38.291                : :Chapter 08
  147. 01:15:11.298                : :Chapter 09
  148. 01:24:12.005                : :Chapter 10
  149. 01:30:18.079                : :Chapter 11
  150. 01:37:44.650                : :Chapter 12
  151. 01:45:51.804                : :Chapter 13
  152. 02:02:37.433                : :Chapter 14
  153. 02:14:07.081                : :Chapter 15
  154. 02:25:37.729                : :Chapter 16
RAW Paste Data
We use cookies for various purposes including analytics. By continuing to use Pastebin, you agree to our use of cookies as described in the Cookies Policy. OK, I Understand
Not a member of Pastebin yet?
Sign Up, it unlocks many cool features!
 
Top