Advertisement
johnowenemmet

Пространство / Экспансия / The Expanse (2022)

Feb 14th, 2024
29
0
Never
Not a member of Pastebin yet? Sign Up, it unlocks many cool features!
text 14.88 KB | None | 0 0
  1. x265 [info]: frame I: 280, Avg QP:18.38 kb/s: 16690.67
  2. x265 [info]: frame P: 8321, Avg QP:19.45 kb/s: 12229.41
  3. x265 [info]: frame B: 57230, Avg QP:21.68 kb/s: 3950.45
  4. x265 [info]: Weighted P-Frames: Y:10.0% UV:7.6%
  5. x265 [info]: Weighted B-Frames: Y:8.3% UV:5.2%
  6. x265 [info]: encoded 65831 frames in 42684.06s (1.54 fps), 5051.10 kb/s, Avg QP:21.38
  7.  
  8. Общее
  9. Уникальный идентификатор : 312834683871889539940628962263679821985 (0xEB59C4BE75965B69F10F67993ED2E8A1)
  10. Полное имя : \\.\The.Expanse.S06E01.Strange.Dogs.mkv
  11. Формат : Matroska
  12. Версия формата : Version 4
  13. Размер файла : 2,09 Гбайт
  14. Продолжительность : 47 м. 3 с.
  15. Общий поток : 6 372 Кбит/сек
  16. Частота кадров : 23,976 кадра/сек
  17. Название фильма : The.Expanse.S06E01.Strange.Dogs / Странные собаки
  18. Трек/Положение : 6
  19. Кодирование произвёл : OldGamer
  20. Тип содержимого : TV Show
  21. Описание : Команда «Росинанта» совершает посадку на незнакомом астероиде, где их поджидает пугающее открытие. Чем это грозит для них в будущем?
  22. Дата выпуска : 2021-12-09
  23. Дата записи : 2021-12-09
  24. Программа кодирования : mkvmerge v82.0 ('I'm The President') 64-bit
  25. Библиотека кодирования : libebml v1.4.5 + libmatroska v1.7.1 / xvid4psp5
  26. Обложка : Yes
  27. Attachments : cover.jpg
  28. ACTOR : Steven Strait, Dominique Tipper, Wes Chatham, Shohreh Aghdashloo, Frankie Adams, Cara Gee, Nadine Nicole, Keon Alexander, Jasai Chase-Owens, Gabriel Darku, Anna Hopkins, Samer Salem, Vanessa Smythe, Kathleen Robertson, Joanne Vannicola, Ted Dykstra, ...
  29. ARTIST : Steven Strait, Dominique Tipper, Wes Chatham, Shohreh Aghdashloo, Frankie Adams, Cara Gee, Nadine Nicole, Keon Alexander, Jasai Chase-Owens, Gabriel Darku, Anna Hopkins, Samer Salem, Vanessa Smythe, Kathleen Robertson, Joanne Vannicola, Ted Dykstra, ...
  30. DIRECTOR : Breck Eisner
  31. EPISODE.PART_NUM : 1
  32. GENRE : драма, детектив, НФ и Фэнтези
  33. LAW_RATING : TV-14
  34. RATING : TV-14
  35. SCREENPLAY_BY : Naren Shankar
  36. SEASON.PART_NUM : 6
  37. SUMMARY : Команда «Росинанта» совершает посадку на незнакомом астероиде, где их поджидает пугающее открытие. Чем это грозит для них в будущем?
  38. SYNOPSIS : Команда «Росинанта» совершает посадку на незнакомом астероиде, где их поджидает пугающее открытие. Чем это грозит для них в будущем? В это время Авасарала и Бобби пытаются восстановить порядок на опустошенной Земле, а Драммер и ее семье предстоит принять судьбоносное решение. На Церере Марко и Филип сталкиваются с внутренними проблемами.
  39. WRITTEN_BY : Naren Shankar
  40.  
  41. Видео
  42. Идентификатор : 1
  43. Формат : HEVC
  44. Формат/Информация : High Efficiency Video Coding
  45. Профиль формата : Main 10@L4.1@High
  46. Идентификатор кодека : V_MPEGH/ISO/HEVC
  47. Продолжительность : 45 м. 45 с.
  48. Битрейт : 5 052 Кбит/сек
  49. Ширина : 1 920 пикселей
  50. Высота : 960 пикселей
  51. Соотношение сторон : 2,000
  52. Режим частоты кадров : Постоянный
  53. Частота кадров : 23,976 (24000/1001) кадра/сек
  54. Цветовое пространство : YUV
  55. Субдискретизация насыщенности : 4:2:0
  56. Битовая глубина : 10 бит
  57. Бит/(Пиксели*Кадры) : 0.114
  58. Размер потока : 1,61 Гбайт (77%)
  59. Заголовок : The Expanse S06E01 / Rip by OldGamer
  60. Библиотека кодирования : x265 3.5+110-8ee01d45b:[Windows][GCC 13.2.0][64 bit] 10bit
  61. Настройки программы : cpuid=1111039 / frame-threads=4 / numa-pools=16 / wpp / no-pmode / no-pme / no-psnr / no-ssim / log-level=2 / input-csp=1 / input-res=1920x960 / interlace=0 / total-frames=65831 / level-idc=41 / high-tier=1 / uhd-bd=0 / ref=5 / no-allow-non-conformance / no-repeat-headers / annexb / no-aud / no-eob / no-eos / no-hrd / info / hash=0 / temporal-layers=0 / open-gop / min-keyint=23 / keyint=240 / gop-lookahead=0 / bframes=16 / b-adapt=2 / b-pyramid / bframe-bias=0 / rc-lookahead=40 / lookahead-slices=0 / scenecut=40 / no-hist-scenecut / radl=0 / no-splice / no-intra-refresh / ctu=32 / min-cu-size=8 / rect / amp / max-tu-size=32 / tu-inter-depth=4 / tu-intra-depth=4 / limit-tu=1 / rdoq-level=2 / dynamic-rd=0.00 / no-ssim-rd / signhide / no-tskip / nr-intra=0 / nr-inter=0 / no-constrained-intra / no-strong-intra-smoothing / max-merge=5 / limit-refs=3 / no-limit-modes / me=3 / subme=7 / merange=57 / temporal-mvp / no-frame-dup / no-hme / weightp / weightb / no-analyze-src-pics / deblock=-3:-3 / no-sao / no-sao-non-deblock / rd=6 / selective-sao=0 / no-early-skip / no-rskip / no-fast-intra / no-tskip-fast / no-cu-lossless / b-intra / no-splitrd-skip / rdpenalty=0 / psy-rd=2.50 / psy-rdoq=1.25 / no-rd-refine / no-lossless / cbqpoffs=0 / crqpoffs=0 / rc=crf / crf=20.2 / qcomp=0.60 / qpstep=4 / stats-write=0 / stats-read=0 / vbv-maxrate=50000 / vbv-bufsize=50000 / vbv-init=0.9 / min-vbv-fullness=50.0 / max-vbv-fullness=80.0 / crf-max=0.0 / crf-min=0.0 / ipratio=1.40 / pbratio=1.30 / aq-mode=4 / aq-strength=0.80 / no-cutree / zone-count=1 / zones: / start-frame=64564 / end-frame=65831 / qp=36 / no-strict-cbr / qg-size=32 / no-rc-grain / qpmax=69 / qpmin=0 / no-const-vbv / sar=1 / overscan=0 / videoformat=5 / range=0 / colorprim=2 / transfer=2 / colormatrix=2 / chromaloc=0 / display-window=0 / cll=0,0 / min-luma=0 / max-luma=1023 / log2-max-poc-lsb=8 / vui-timing-info / vui-hrd-info / slices=1 / no-opt-qp-pps / no-opt-ref-list-length-pps / no-multi-pass-opt-rps / scenecut-bias=0.00 / no-opt-cu-delta-qp / no-aq-motion / no-hdr10 / no-hdr10-opt / no-dhdr10-opt / no-idr-recovery-sei / analysis-reuse-level=0 / analysis-save-reuse-level=0 / analysis-load-reuse-level=0 / scale-factor=0 / refine-intra=0 / refine-inter=0 / refine-mv=1 / refine-ctu-distortion=0 / no-limit-sao / ctu-info=0 / no-lowpass-dct / refine-analysis-type=0 / copy-pic=1 / max-ausize-factor=1.0 / no-dynamic-refine / no-single-sei / no-hevc-aq / no-svt / no-field / qp-adaptation-range=1.00 / scenecut-aware-qp=0conformance-window-offsets / right=0 / bottom=0 / decoder-max-rate=0 / no-vbv-live-multi-pass / no-mcstf / no-sbrc
  62. Язык : English
  63. Default : Да
  64. Forced : Нет
  65.  
  66. Аудио #1
  67. Идентификатор : 2
  68. Формат : AC-3
  69. Формат/Информация : Audio Coding 3
  70. Коммерческое название : Dolby Digital
  71. Идентификатор кодека : A_AC3
  72. Продолжительность : 47 м. 3 с.
  73. Вид битрейта : Постоянный
  74. Битрейт : 448 Кбит/сек
  75. Каналы : 6 каналов
  76. Channel layout : L R C LFE Ls Rs
  77. Частота : 48,0 КГц
  78. Частота кадров : 31,250 кадров/сек (1536 SPF)
  79. Метод сжатия : С потерями
  80. Размер потока : 151 Мбайт (7%)
  81. Заголовок : MVO (LostFilm)
  82. Язык : Russian
  83. Service kind : Complete Main
  84. Default : Да
  85. Forced : Нет
  86.  
  87. Аудио #2
  88. Идентификатор : 3
  89. Формат : AC-3
  90. Формат/Информация : Audio Coding 3
  91. Коммерческое название : Dolby Digital
  92. Идентификатор кодека : A_AC3
  93. Продолжительность : 47 м. 3 с.
  94. Вид битрейта : Постоянный
  95. Битрейт : 384 Кбит/сек
  96. Каналы : 6 каналов
  97. Channel layout : L R C LFE Ls Rs
  98. Частота : 48,0 КГц
  99. Частота кадров : 31,250 кадров/сек (1536 SPF)
  100. Метод сжатия : С потерями
  101. Размер потока : 129 Мбайт (6%)
  102. Заголовок : MVO (AlexFilm)
  103. Язык : Russian
  104. Service kind : Complete Main
  105. Default : Нет
  106. Forced : Нет
  107.  
  108. Аудио #3
  109. Идентификатор : 4
  110. Формат : AC-3
  111. Формат/Информация : Audio Coding 3
  112. Коммерческое название : Dolby Digital
  113. Идентификатор кодека : A_AC3
  114. Продолжительность : 45 м. 45 с.
  115. Вид битрейта : Постоянный
  116. Битрейт : 640 Кбит/сек
  117. Каналы : 6 каналов
  118. Channel layout : L R C LFE Ls Rs
  119. Частота : 48,0 КГц
  120. Частота кадров : 31,250 кадров/сек (1536 SPF)
  121. Метод сжатия : С потерями
  122. Размер потока : 209 Мбайт (10%)
  123. Язык : English
  124. Service kind : Complete Main
  125. Default : Нет
  126. Forced : Нет
  127.  
  128. Текст #1
  129. Идентификатор : 5
  130. Формат : UTF-8
  131. Идентификатор кодека : S_TEXT/UTF8
  132. Идентификатор кодека/Информация : UTF-8 Plain Text
  133. Продолжительность : 37 м. 41 с.
  134. Битрейт : 4 бит/сек
  135. Частота кадров : 0,011 кадр/сек
  136. Count of elements : 24
  137. Размер потока : 1,34 Кбайт (0%)
  138. Заголовок : Russian @ forced SRT
  139. Язык : Russian
  140. Default : Да
  141. Forced : Нет
  142.  
  143. Текст #2
  144. Идентификатор : 6
  145. Формат : UTF-8
  146. Идентификатор кодека : S_TEXT/UTF8
  147. Идентификатор кодека/Информация : UTF-8 Plain Text
  148. Продолжительность : 45 м. 28 с.
  149. Битрейт : 96 бит/сек
  150. Частота кадров : 0,184 кадр/сек
  151. Count of elements : 503
  152. Размер потока : 32,2 Кбайт (0%)
  153. Заголовок : Russian @ SRT
  154. Язык : Russian
  155. Default : Нет
  156. Forced : Нет
  157.  
  158. Текст #3
  159. Идентификатор : 7
  160. Формат : UTF-8
  161. Идентификатор кодека : S_TEXT/UTF8
  162. Идентификатор кодека/Информация : UTF-8 Plain Text
  163. Продолжительность : 43 м. 23 с.
  164. Битрейт : 66 бит/сек
  165. Частота кадров : 0,282 кадр/сек
  166. Count of elements : 734
  167. Размер потока : 21,2 Кбайт (0%)
  168. Заголовок : English @ SRT SDH
  169. Язык : English
  170. Default : Нет
  171. Forced : Нет
  172.  
  173. Меню
  174. 00:00:00.000 : en:Chapter 01
  175. 00:10:04.895 : en:Chapter 02
  176. 00:19:10.274 : en:Chapter 03
  177. 00:30:36.501 : en:Chapter 04
  178. 00:39:04.800 : en:Chapter 05
  179. 00:43:32.943 : en:Chapter 06
Advertisement
Add Comment
Please, Sign In to add comment
Advertisement