Secasa

Untitled

May 9th, 2015
13
Never
Not a member of Pastebin yet? Sign Up, it unlocks many cool features!
  1. Format : Matroska
  2. Format version : Version 4 / Version 2
  3. File size : 10.1 GiB
  4. Duration : 1h 42mn
  5. Overall bit rate : 14.1 Mbps
  6. Encoded date : UTC 2015-05-08 12:29:41
  7. Writing application : mkvmerge v6.3.0 ('You can't stop me!') built on Jun 28 2013 20:09:41
  8. Writing library : libebml v1.3.0 + libmatroska v1.4.0
  9.  
  10. Video
  11. ID : 1
  12. Format : AVC
  13. Format/Info : Advanced Video Codec
  14. Format profile : High@L4.0
  15. Format settings, CABAC : Yes
  16. Format settings, ReFrames : 3 frames
  17. Codec ID : V_MPEG4/ISO/AVC
  18. Duration : 1h 42mn
  19. Bit rate : 10.8 Mbps
  20. Width : 1 920 pixels
  21. Height : 1 036 pixels
  22. Display aspect ratio : 1.853
  23. Frame rate : 24.000 fps
  24. Color space : YUV
  25. Chroma subsampling : 4:2:0
  26. Bit depth : 8 bits
  27. Scan type : Progressive
  28. Bits/(Pixel*Frame) : 0.227
  29. Stream size : 7.75 GiB (77%)
  30. Writing library : x264 core 130 r2273 b3065e6
  31. Encoding settings : cabac=1 / ref=4 / deblock=1:-1:-1 / analyse=0x3:0x113 / me=hex / subme=9 / psy=1 / psy_rd=1,00:0,15 / mixed_ref=1 / me_range=16 / chroma_me=1 / trellis=2 / 8x8dct=1 / cqm=0 / deadzone=21,11 / fast_pskip=1 / chroma_qp_offset=-3 / threads=12 / lookahead_threads=1 / sliced_threads=0 / nr=0 / decimate=1 / interlaced=0 / bluray_compat=0 / constrained_intra=0 / bframes=4 / b_pyramid=1 / b_adapt=2 / b_bias=0 / direct=1 / weightb=1 / open_gop=0 / weightp=1 / keyint=240 / keyint_min=24 / scenecut=40 / intra_refresh=0 / rc_lookahead=40 / rc=crf / mbtree=1 / crf=20,0 / qcomp=0,60 / qpmin=0 / qpmax=69 / qpstep=4 / ip_ratio=1,40 / aq=1:1,00
  32. Language : English
  33. Default : Yes
  34. Forced : No
  35. Color primaries : BT.709-5, BT.1361, IEC 61966-2-4, SMPTE RP177
  36. Transfer characteristics : BT.709-5, BT.1361
  37. Matrix coefficients : BT.709-5, BT.1361, IEC 61966-2-4 709, SMPTE RP177
  38.  
  39. Audio #1
  40. ID : 2
  41. Format : DTS
  42. Format/Info : Digital Theater Systems
  43. Codec ID : A_DTS
  44. Duration : 1h 42mn
  45. Bit rate mode : Constant
  46. Bit rate : 1 510 Kbps
  47. Channel(s) : 6 channels
  48. Channel positions : Front: L C R, Side: L R, LFE
  49. Sampling rate : 48.0 KHz
  50. Bit depth : 16 bits
  51. Compression mode : Lossy
  52. Stream size : 1.08 GiB (11%)
  53. Title : DTS Castellano
  54. Language : Spanish
  55. Default : Yes
  56. Forced : No
  57.  
  58. Audio #2
  59. ID : 3
  60. Format : DTS
  61. Format/Info : Digital Theater Systems
  62. Codec ID : A_DTS
  63. Duration : 1h 42mn
  64. Bit rate mode : Constant
  65. Bit rate : 1 510 Kbps
  66. Channel(s) : 6 channels
  67. Channel positions : Front: L C R, Side: L R, LFE
  68. Sampling rate : 48.0 KHz
  69. Bit depth : 16 bits
  70. Compression mode : Lossy
  71. Stream size : 1.08 GiB (11%)
  72. Title : DTS Ingles
  73. Language : English
  74. Default : No
  75. Forced : No
  76.  
  77. Text #1
  78. ID : 4
  79. Format : PGS
  80. Muxing mode : zlib
  81. Codec ID : S_HDMV/PGS
  82. Codec ID/Info : The same subtitle format used on BDs/HD-DVDs
  83. Title : Castellano
  84. Language : Spanish
  85. Default : No
  86. Forced : No
  87.  
  88. Text #2
  89. ID : 5
  90. Format : PGS
  91. Muxing mode : zlib
  92. Codec ID : S_HDMV/PGS
  93. Codec ID/Info : The same subtitle format used on BDs/HD-DVDs
  94. Title : Ingles
  95. Language : English
  96. Default : No
  97. Forced : No
  98.  
  99. Menu
  100. 00:00:00.000 : en:Chapter 1
  101. 00:06:29.875 : en:Chapter 2
  102. 00:12:09.666 : en:Chapter 3
  103. 00:18:50.708 : en:Chapter 4
  104. 00:25:51.541 : en:Chapter 5
  105. 00:30:49.833 : en:Chapter 6
  106. 00:37:55.166 : en:Chapter 7
  107. 00:44:45.958 : en:Chapter 8
  108. 00:52:17.875 : en:Chapter 9
  109. 00:57:59.333 : en:Chapter 10
  110. 01:03:56.166 : en:Chapter 11
  111. 01:10:25.416 : en:Chapter 12
  112. 01:17:33.875 : en:Chapter 13
  113. 01:23:34.750 : en:Chapter 14
  114. 01:29:23.541 : en:Chapter 15
  115. 01:35:42.833 : en:Chapter 16
RAW Paste Data