SHARE
TWEET

Stranger Things: Season 1 1080p BluRay

dirtyharrys Jun 25th, 2019 148 Never
Not a member of Pastebin yet? Sign Up, it unlocks many cool features!
  1. General
  2. Unique ID                   : 263229338770635435275562513016018089138 (0xC608206769CEA7F9FF05FE1C5A96B4B2)
  3. Complete name               : E:\Stranger.Things.S01\ST-S01E01.mkv
  4. Format                      : Matroska
  5. Format version              : Version 4
  6. File size                   : 1.74 GiB
  7. Duration                    : 48 min 33 s
  8. Overall bit rate            : 5 127 kb/s
  9. Movie name                  : Stranger Things S01E01 / Stranger Things: Season One
  10. Description                 : Episode 01: "Chapter One: The Vanishing of Will Byers"
  11. Encoded date                : UTC 2019-06-07 01:57:38
  12. Writing application         : mkvmerge v30.1.0 ('Forever And More') 32-bit
  13. Writing library             : libebml v1.3.6 + libmatroska v1.4.9
  14. Copyright                   : Movies HDs 2019
  15. ARTIST                      : HarshLearner
  16.  
  17. Video
  18. ID                          : 1
  19. Format                      : HEVC
  20. Format/Info                 : High Efficiency Video Coding
  21. Format profile              : Main 10@L4@Main
  22. Codec ID                    : V_MPEGH/ISO/HEVC
  23. Duration                    : 47 min 32 s
  24. Bit rate                    : 4 153 kb/s
  25. Width                       : 1 920 pixels
  26. Height                      : 960 pixels
  27. Display aspect ratio        : 2.000
  28. Frame rate mode             : Constant
  29. Frame rate                  : 23.976 (24000/1001) FPS
  30. Color space                 : YUV
  31. Chroma subsampling          : 4:2:0
  32. Bit depth                   : 10 bits
  33. Bits/(Pixel*Frame)          : 0.094
  34. Stream size                 : 1.38 GiB (79%)
  35. Title                       : S01E01: Chapter One: The Vanishing of Will Byers
  36. Writing library             : x265 3.0+1-ed72af837053:[Windows][MSVC 1900][64 bit] 10bit
  37. Encoding settings           : cpuid=1111039 / frame-threads=3 / numa-pools=8 / wpp / no-pmode / no-pme / no-psnr / no-ssim / log-level=2 / input-csp=1 / input-res=1920x960 / interlace=0 / total-frames=68400 / level-idc=0 / high-tier=1 / uhd-bd=0 / ref=4 / no-allow-non-conformance / no-repeat-headers / annexb / no-aud / no-hrd / info / hash=0 / no-temporal-layers / open-gop / min-keyint=23 / keyint=250 / gop-lookahead=0 / bframes=8 / b-adapt=2 / b-pyramid / bframe-bias=0 / rc-lookahead=80 / lookahead-slices=4 / scenecut=40 / radl=0 / no-splice / no-intra-refresh / ctu=64 / min-cu-size=8 / no-rect / no-amp / max-tu-size=32 / tu-inter-depth=1 / tu-intra-depth=1 / limit-tu=0 / rdoq-level=2 / dynamic-rd=0.00 / no-ssim-rd / signhide / no-tskip / nr-intra=0 / nr-inter=0 / no-constrained-intra / no-strong-intra-smoothing / max-merge=3 / limit-refs=3 / limit-modes / me=3 / subme=5 / merange=57 / temporal-mvp / weightp / weightb / no-analyze-src-pics / deblock=-3:-3 / no-sao / no-sao-non-deblock / rd=4 / no-early-skip / rskip / no-fast-intra / no-tskip-fast / no-cu-lossless / b-intra / no-splitrd-skip / rdpenalty=0 / psy-rd=1.50 / psy-rdoq=2.00 / no-rd-refine / no-lossless / cbqpoffs=0 / crqpoffs=0 / rc=crf / crf=21.0 / qcomp=0.60 / qpstep=4 / stats-write=0 / stats-read=0 / ipratio=1.40 / pbratio=1.30 / aq-mode=3 / aq-strength=1.00 / cutree / zone-count=0 / no-strict-cbr / qg-size=32 / no-rc-grain / qpmax=69 / qpmin=0 / no-const-vbv / sar=0 / overscan=0 / videoformat=5 / range=0 / colorprim=2 / transfer=2 / colormatrix=2 / chromaloc=0 / display-window=0 / max-cll=0,0 / min-luma=0 / max-luma=1023 / log2-max-poc-lsb=8 / vui-timing-info / vui-hrd-info / slices=1 / no-opt-qp-pps / no-opt-ref-list-length-pps / no-multi-pass-opt-rps / scenecut-bias=0.05 / no-opt-cu-delta-qp / no-aq-motion / no-hdr / no-hdr-opt / no-dhdr10-opt / no-idr-recovery-sei / analysis-reuse-level=5 / scale-factor=0 / refine-intra=0 / refine-inter=0 / refine-mv=0 / refine-ctu-distortion=0 / no-limit-sao / ctu-info=0 / no-lowpass-dct / refine-analysis-type=0 / copy-pic=1 / max-ausize-factor=1.0 / no-dynamic-refine / no-single-sei / no-hevc-aq / qp-adaptation-range=1.00
  38. Default                     : Yes
  39. Forced                      : No
  40.  
  41. Audio #1
  42. ID                          : 2
  43. Format                      : AAC LC
  44. Format/Info                 : Advanced Audio Codec Low Complexity
  45. Codec ID                    : A_AAC-2
  46. Duration                    : 47 min 32 s
  47. Bit rate                    : 413 kb/s
  48. Channel(s)                  : 6 channels
  49. Channel layout              : C L R Ls Rs LFE
  50. Sampling rate               : 48.0 kHz
  51. Frame rate                  : 46.875 FPS (1024 SPF)
  52. Compression mode            : Lossy
  53. Delay relative to video     : 20 ms
  54. Stream size                 : 140 MiB (8%)
  55. Language                    : English
  56. Default                     : No
  57. Forced                      : No
  58.  
  59. Audio #2
  60. ID                          : 3
  61. Format                      : E-AC-3
  62. Format/Info                 : Enhanced AC-3
  63. Commercial name             : Dolby Digital Plus
  64. Codec ID                    : A_EAC3
  65. Duration                    : 48 min 33 s
  66. Bit rate mode               : Constant
  67. Bit rate                    : 640 kb/s
  68. Channel(s)                  : 6 channels
  69. Channel layout              : L R C LFE Ls Rs
  70. Sampling rate               : 48.0 kHz
  71. Frame rate                  : 31.250 FPS (1536 SPF)
  72. Compression mode            : Lossy
  73. Stream size                 : 222 MiB (12%)
  74. Language                    : Spanish
  75. Service kind                : Complete Main
  76. Default                     : Yes
  77. Forced                      : Yes
  78.  
  79. Text #1
  80. ID                          : 4
  81. Format                      : PGS
  82. Muxing mode                 : zlib
  83. Codec ID                    : S_HDMV/PGS
  84. Codec ID/Info               : Picture based subtitle format used on BDs/HD-DVDs
  85. Duration                    : 46 min 12 s
  86. Bit rate                    : 47.1 kb/s
  87. Count of elements           : 1539
  88. Stream size                 : 15.6 MiB (1%)
  89. Language                    : English
  90. Default                     : No
  91. Forced                      : No
  92.  
  93. Text #2
  94. ID                          : 5
  95. Format                      : UTF-8
  96. Codec ID                    : S_TEXT/UTF8
  97. Codec ID/Info               : UTF-8 Plain Text
  98. Duration                    : 46 min 12 s
  99. Bit rate                    : 75 b/s
  100. Count of elements           : 769
  101. Stream size                 : 25.5 KiB (0%)
  102. Title                       : English SDH
  103. Language                    : English
  104. Default                     : No
  105. Forced                      : No
  106.  
  107. Text #3
  108. ID                          : 6
  109. Format                      : UTF-8
  110. Codec ID                    : S_TEXT/UTF8
  111. Codec ID/Info               : UTF-8 Plain Text
  112. Duration                    : 45 min 45 s
  113. Bit rate                    : 59 b/s
  114. Count of elements           : 631
  115. Stream size                 : 19.9 KiB (0%)
  116. Language                    : Spanish
  117. Default                     : Yes
  118. Forced                      : Yes
  119.  
  120. Text #4
  121. ID                          : 7
  122. Format                      : UTF-8
  123. Codec ID                    : S_TEXT/UTF8
  124. Codec ID/Info               : UTF-8 Plain Text
  125. Duration                    : 30 min 33 s
  126. Bit rate                    : 2 b/s
  127. Count of elements           : 14
  128. Stream size                 : 525 Bytes (0%)
  129. Language                    : Spanish
  130. Default                     : No
  131. Forced                      : No
  132.  
  133. Menu
  134. 00:00:00.000                : en:Chapter 1
  135. 00:04:53.835                : en:Chapter 2
  136. 00:08:25.714                : en:Chapter 3
  137. 00:12:46.099                : en:Chapter 4
  138. 00:18:52.882                : en:Chapter 5
  139. 00:21:17.776                : en:Chapter 6
  140. 00:25:28.944                : en:Chapter 7
  141. 00:30:08.890                : en:Chapter 8
  142. 00:35:49.689                : en:Chapter 9
  143. 00:38:48.493                : en:Chapter 10
  144. 00:46:17.942                : en:Chapter 11
RAW Paste Data
We use cookies for various purposes including analytics. By continuing to use Pastebin, you agree to our use of cookies as described in the Cookies Policy. OK, I Understand
 
Top