daily pastebin goal
9%
SHARE
TWEET

BvS_4K

iMN0 Jun 10th, 2017 454 Never
Not a member of Pastebin yet? Sign Up, it unlocks many cool features!
  1. General
  2. Unique ID                                : 287802289161621994876687180024514374040 (0xD884B465A4BA1455AFDE2416525C6998)
  3. Format                                   : Matroska
  4. Format version                           : Version 2
  5. File size                                : 65.6 GiB
  6. Duration                                 : 2 h 31 min
  7. Overall bit rate                         : 61.9 Mb/s
  8. Encoded date                             : UTC 2016-07-19T22:47:13Z
  9. Writing application                      : HandBrake 20160604111422-9206444-master 2016060501
  10. Writing library                          : Lavf56.1.0 / Lavf56.1.0
  11.  
  12. Video
  13. ID                                       : 1
  14. Format                                   : HEVC
  15. Format/Info                              : High Efficiency Video Coding
  16. Format profile                           : Main 10@L6.1@Main
  17. Codec ID                                 : V_MPEGH/ISO/HEVC
  18. Duration                                 : 2 h 31 min
  19. Bit rate                                 : 60.1 Mb/s
  20. Width                                    : 3 840 pixels
  21. Height                                   : 2 160 pixels
  22. Display aspect ratio                     : 16:9
  23. Frame rate mode                          : Constant
  24. Frame rate                               : 23.976 (24000/1001) FPS
  25. Color space                              : YUV
  26. Chroma subsampling                       : 4:2:0
  27. Bit depth                                : 10 bits
  28. Bits/(Pixel*Frame)                       : 0.302
  29. Stream size                              : 63.6 GiB (97%)
  30. Writing library                          : x265 1.9+3-63308f7658c3:[Windows][GCC 5.2.0][64 bit] 10bit
  31. Encoding settings                        : wpp / ctu=64 / min-cu-size=8 / max-tu-size=32 / tu-intra-depth=1 / tu-inter-depth=1 / me=1 / subme=2 / merange=57 / no-rect / no-amp / max-merge=2 / temporal-mvp / no-early-skip / rdpenalty=0 / no-tskip / no-tskip-fast / strong-intra-smoothing / no-lossless / no-cu-lossless / no-constrained-intra / no-fast-intra / open-gop / no-temporal-layers / interlace=0 / keyint=240 / min-keyint=24 / scenecut=40 / rc-lookahead=20 / lookahead-slices=8 / bframes=4 / bframe-bias=0 / b-adapt=2 / ref=3 / limit-refs=3 / no-limit-modes / weightp / no-weightb / aq-mode=1 / qg-size=32 / aq-strength=1.00 / cbqpoffs=0 / crqpoffs=0 / rd=3 / psy-rd=2.00 / rdoq-level=0 / psy-rdoq=0.00 / signhide / deblock / sao / no-sao-non-deblock / b-pyramid / cutree / no-intra-refresh / rc=abr / bitrate=61000 / qcomp=0.60 / qpmin=0 / qpmax=51 / qpstep=4 / ipratio=1.40 / pbratio=1.30
  32. Default                                  : Yes
  33. Forced                                   : No
  34. Color range                              : Limited
  35. Color primaries                          : BT.709
  36. Transfer characteristics                 : BT.709
  37. Matrix coefficients                      : BT.601
  38.  
  39. Audio
  40. ID                                       : 2
  41. Format                                   : AC-3
  42. Format/Info                              : Audio Coding 3
  43. Format settings, Endianness              : Big
  44. Codec ID                                 : A_AC3
  45. Duration                                 : 2 h 31 min
  46. Bit rate mode                            : Constant
  47. Bit rate                                 : 640 kb/s
  48. Channel(s)                               : 2 channels
  49. Channel positions                        : Front: L R
  50. Sampling rate                            : 48.0 kHz
  51. Frame rate                               : 31.250 FPS (1536 spf)
  52. Bit depth                                : 16 bits
  53. Compression mode                         : Lossy
  54. Delay relative to video                  : -5 ms
  55. Stream size                              : 694 MiB (1%)
  56. Title                                    : Stereo
  57. Service kind                             : Complete Main
  58. Default                                  : Yes
  59. Forced                                   : No
RAW Paste Data
We use cookies for various purposes including analytics. By continuing to use Pastebin, you agree to our use of cookies as described in the Cookies Policy. OK, I Understand
 
Top