Advertisement
Guest User

Untitled

a guest
Jun 15th, 2015
281
0
Never
Not a member of Pastebin yet? Sign Up, it unlocks many cool features!
text 3.87 KB | None | 0 0
  1. General
  2. Complete name : Obschestvo.Boligolova.2012.DVDRip.XviD.pca1962.avi
  3. Format : AVI
  4. Format/Info : Audio Video Interleave
  5. File size : 1.70 GiB
  6. Duration : 2h 18mn
  7. Overall bit rate : 1 752 Kbps
  8. Movie name : Obschestvo.Boligolova.2012
  9. Director : mixing audio rus - pca1962
  10. Genre : Drama/Melodrama
  11. Writing application : VirtualDubMod 1.5.10.2 (build 2540/release)
  12. Original source form/Name : Movie
  13.  
  14. Video
  15. ID : 0
  16. Format : MPEG-4 Visual
  17. Format profile : Advanced Simple@L5
  18. Format settings, BVOP : 3
  19. Format settings, QPel : No
  20. Format settings, GMC : No warppoints
  21. Format settings, Matrix : Custom
  22. Codec ID : XVID
  23. Codec ID/Hint : XviD
  24. Duration : 2h 18mn
  25. Bit rate : 1098 Kbps
  26. Width : 720 pixels
  27. Height : 304 pixels
  28. Display aspect ratio : 2.35:1
  29. Frame rate : 23.976 fps
  30. Color space : YUV
  31. Chroma subsampling : 4:2:0
  32. Bit depth : 8 bits
  33. Scan type : Progressive
  34. Compression mode : Lossy
  35. Bits/(Pixel*Frame) : 0.209
  36. Stream size : 1.06 GiB (63%)
  37. Writing library : XviD 1.2.1 (UTC 2008-12-04)
  38.  
  39. Audio #1
  40. ID : 1
  41. Format : AC-3
  42. Format/Info : Audio Coding 3
  43. Mode extension : CM (complete main)
  44. Format settings, Endianness : Big
  45. Codec ID : 2000
  46. Duration : 2h 18mn
  47. Bit rate mode : Constant
  48. Bit rate : 192 Kbps
  49. Channel count : 2 channels
  50. Channel positions : Front: L R
  51. Sampling rate : 48.0 KHz
  52. Bit depth : 16 bits
  53. Compression mode : Lossy
  54. Stream size : 190 MiB (11%)
  55. Alignment : Split accross interleaves
  56. Interleave, duration : 42 ms (1.00 video frame)
  57. Interleave, preload duration : 500 ms
  58.  
  59. Audio #2
  60. ID : 2
  61. Format : AC-3
  62. Format/Info : Audio Coding 3
  63. Mode extension : CM (complete main)
  64. Format settings, Endianness : Big
  65. Codec ID : 2000
  66. Duration : 2h 18mn
  67. Bit rate mode : Constant
  68. Bit rate : 448 Kbps
  69. Channel count : 6 channels
  70. Channel positions : Front: L C R, Side: L R, LFE
  71. Sampling rate : 48.0 KHz
  72. Bit depth : 16 bits
  73. Compression mode : Lossy
  74. Stream size : 444 MiB (26%)
  75. Alignment : Split accross interleaves
  76. Interleave, duration : 42 ms (1.00 video frame)
  77. Interleave, preload duration : 500 ms
Advertisement
Add Comment
Please, Sign In to add comment
Advertisement