Guest User

Untitled

a guest
Sep 17th, 2019
78
Never
Not a member of Pastebin yet? Sign Up, it unlocks many cool features!
  1. General
  2. Unique ID : 251520705490707015119628125576720397430 (0xBD392036A4C4B334701C24EF209DB476)
  3. Complete name : Castlevania S02E01.mkv
  4. Format : Matroska
  5. Format version : Version 4
  6. File size : 520 MiB
  7. Duration : 25 min 12 s
  8. Overall bit rate : 2 883 kb/s
  9. Encoded date : UTC 2019-04-07 22:42:34
  10. Writing application : HandBrake 20190323142123-9a0a337-master 2019032401
  11. Writing library : Lavf58.20.100
  12. ErrorDetectionType : Per level 1
  13. Attachments : OpenSans-Semibold.ttf
  14.  
  15. Video
  16. ID : 1
  17. Format : HEVC
  18. Format/Info : High Efficiency Video Coding
  19. Format profile : Main 10@L4@Main
  20. Codec ID : V_MPEGH/ISO/HEVC
  21. Duration : 25 min 11 s
  22. Bit rate : 2 442 kb/s
  23. Width : 1 920 pixels
  24. Height : 1 080 pixels
  25. Display aspect ratio : 16:9
  26. Frame rate mode : Constant
  27. Frame rate : 23.976 (24000/1001) FPS
  28. Color space : YUV
  29. Chroma subsampling : 4:2:0
  30. Bit depth : 10 bits
  31. Bits/(Pixel*Frame) : 0.049
  32. Stream size : 440 MiB (85%)
  33. Writing library : x265 3.0:[Windows][GCC 7.1.0][64 bit] 10bit
  34. Encoding settings : cpuid=1111039 / frame-threads=4 / numa-pools=20 / wpp / no-pmode / no-pme / no-psnr / no-ssim / log-level=2 / input-csp=1 / input-res=1920x1080 / interlace=0 / total-frames=0 / level-idc=0 / high-tier=1 / uhd-bd=0 / ref=3 / no-allow-non-conformance / no-repeat-headers / annexb / no-aud / no-hrd / info / hash=0 / no-temporal-layers / open-gop / min-keyint=24 / keyint=240 / gop-lookahead=0 / bframes=4 / b-adapt=2 / b-pyramid / bframe-bias=0 / rc-lookahead=20 / lookahead-slices=6 / scenecut=40 / radl=0 / no-splice / no-intra-refresh / ctu=64 / min-cu-size=8 / no-rect / no-amp / max-tu-size=32 / tu-inter-depth=1 / tu-intra-depth=1 / limit-tu=0 / rdoq-level=0 / dynamic-rd=0.00 / no-ssim-rd / signhide / no-tskip / nr-intra=0 / nr-inter=0 / no-constrained-intra / no-strong-intra-smoothing / max-merge=2 / limit-refs=3 / no-limit-modes / me=1 / subme=2 / merange=57 / temporal-mvp / weightp / no-weightb / no-analyze-src-pics / deblock=0:0 / sao / no-sao-non-deblock / rd=3 / no-early-skip / rskip / no-fast-intra / no-tskip-fast / no-cu-lossless / no-b-intra / no-splitrd-skip / rdpenalty=0 / psy-rd=2.00 / psy-rdoq=0.00 / no-rd-refine / no-lossless / cbqpoffs=0 / crqpoffs=0 / rc=abr / bitrate=2500 / qcomp=0.60 / qpstep=4 / stats-write=0 / stats-read=2 / cplxblur=20.0 / qblur=0.5 / ipratio=1.40 / pbratio=1.30 / aq-mode=2 / aq-strength=1.00 / cutree / zone-count=0 / no-strict-cbr / qg-size=32 / no-rc-grain / qpmax=69 / qpmin=0 / no-const-vbv / sar=1 / overscan=0 / videoformat=5 / range=0 / colorprim=1 / transfer=1 / colormatrix=1 / chromaloc=0 / display-window=0 / max-cll=0,0 / min-luma=0 / max-luma=1023 / log2-max-poc-lsb=8 / vui-timing-info / vui-hrd-info / slices=1 / no-opt-qp-pps / no-opt-ref-list-length-pps / no-multi-pass-opt-rps / scenecut-bias=0.05 / no-opt-cu-delta-qp / no-aq-motion / no-hdr / no-hdr-opt / no-dhdr10-opt / no-idr-recovery-sei / analysis-reuse-level=5 / scale-factor=0 / refine-intra=0 / refine-inter=0 / refine-mv=0 / refine-ctu-distortion=0 / no-limit-sao / ctu-info=0 / no-lowpass-dct / refine-analysis-type=0 / copy-pic=1 / max-ausize-factor=1.0 / no-dynamic-refine / no-single-sei / no-hevc-aq / qp-adaptation-range=1.00
  35. Default : Yes
  36. Forced : No
  37. Color range : Limited
  38. Color primaries : BT.709
  39. Transfer characteristics : BT.709
  40. Matrix coefficients : BT.709
  41.  
  42. Audio
  43. ID : 2
  44. Format : AC-3
  45. Format/Info : Audio Coding 3
  46. Commercial name : Dolby Digital
  47. Codec ID : A_AC3
  48. Duration : 25 min 12 s
  49. Bit rate mode : Constant
  50. Bit rate : 384 kb/s
  51. Channel(s) : 6 channels
  52. Channel layout : L R C LFE Ls Rs
  53. Sampling rate : 48.0 kHz
  54. Frame rate : 31.250 FPS (1536 SPF)
  55. Bit depth : 16 bits
  56. Compression mode : Lossy
  57. Stream size : 69.2 MiB (13%)
  58. Title : Surround
  59. Language : Japanese
  60. Service kind : Complete Main
  61. Default : Yes
  62. Forced : No
  63.  
  64. Text
  65. ID : 3
  66. Format : ASS
  67. Codec ID : S_TEXT/ASS
  68. Codec ID/Info : Advanced Sub Station Alpha
  69. Duration : 22 min 27 s
  70. Compression mode : Lossless
  71. Language : English
  72. Default : Yes
  73. Forced : Yes
RAW Paste Data