SHARE
TWEET

Untitled

a guest Feb 10th, 2015 2 Never
Not a member of Pastebin yet? Sign Up, it unlocks many cool features!
  1.  
  2. C:\Users\YaMoonSun\Videos\INUYASHA_BOXSET_1_DISC1>ffmpeg -i "title03.mkv" -vf su
  3. btitles=title03.mkv -vf scale=640:480 -c:v libx264 -b:v 1M -acodec: copy -map 2
  4. -threads:4 "InuYasha S01E01.mkv"
  5. ffmpeg version N-69672-g078be09 Copyright (c) 2000-2015 the FFmpeg developers
  6.   built with gcc 4.9.2 (GCC)
  7.   configuration: --enable-gpl --enable-version3 --disable-w32threads --enable-av
  8. isynth --enable-bzlib --enable-fontconfig --enable-frei0r --enable-gnutls --enab
  9. le-iconv --enable-libass --enable-libbluray --enable-libbs2b --enable-libcaca --
  10. enable-libfreetype --enable-libgme --enable-libgsm --enable-libilbc --enable-lib
  11. modplug --enable-libmp3lame --enable-libopencore-amrnb --enable-libopencore-amrw
  12. b --enable-libopenjpeg --enable-libopus --enable-librtmp --enable-libschroedinge
  13. r --enable-libsoxr --enable-libspeex --enable-libtheora --enable-libtwolame --en
  14. able-libvidstab --enable-libvo-aacenc --enable-libvo-amrwbenc --enable-libvorbis
  15.  --enable-libvpx --enable-libwavpack --enable-libwebp --enable-libx264 --enable-
  16. libx265 --enable-libxavs --enable-libxvid --enable-lzma --enable-decklink --enab
  17. le-zlib
  18.   libavutil      54. 18.100 / 54. 18.100
  19.   libavcodec     56. 21.102 / 56. 21.102
  20.   libavformat    56. 19.100 / 56. 19.100
  21.   libavdevice    56.  4.100 / 56.  4.100
  22.   libavfilter     5.  9.104 /  5.  9.104
  23.   libswscale      3.  1.101 /  3.  1.101
  24.   libswresample   1.  1.100 /  1.  1.100
  25.   libpostproc    53.  3.100 / 53.  3.100
  26. Trailing options were found on the commandline.
  27. Input #0, matroska,webm, from 'title03.mkv':
  28.   Metadata:
  29.     encoder         : libmakemkv v1.9.1 (1.3.0/1.4.1) win(x64-release)
  30.     creation_time   : 2015-02-11 04:30:08
  31.   Duration: 00:24:15.19, start: 0.000000, bitrate: 6555 kb/s
  32.     Chapter #0:0: start 0.000000, end 95.428667
  33.     Metadata:
  34.       title           : Chapter 01
  35.     Chapter #0:1: start 95.428667, end 908.307400
  36.     Metadata:
  37.       title           : Chapter 02
  38.     Chapter #0:2: start 908.307400, end 1329.928600
  39.     Metadata:
  40.       title           : Chapter 03
  41.     Chapter #0:3: start 1329.928600, end 1425.357267
  42.     Metadata:
  43.       title           : Chapter 04
  44.     Chapter #0:4: start 1425.357267, end 1455.187067
  45.     Metadata:
  46.       title           : Chapter 05
  47.     Stream #0:0(eng): Video: mpeg2video (Main), yuv420p(tv, smpte170m), 720x480
  48. [SAR 8:9 DAR 4:3], max. 8500 kb/s, 29.97 fps, 29.97 tbr, 1k tbn, 59.94 tbc
  49.     Stream #0:1(eng): Audio: ac3, 48000 Hz, stereo, fltp, 224 kb/s (default)
  50.     Metadata:
  51.       title           : Stereo
  52.     Stream #0:2(jpn): Audio: ac3, 48000 Hz, stereo, fltp, 224 kb/s
  53.     Metadata:
  54.       title           : Stereo
  55.     Stream #0:3(eng): Subtitle: dvd_subtitle, 720x480 (default)
  56. At least one output file must be specified
  57.  
  58. C:\Users\YaMoonSun\Videos\INUYASHA_BOXSET_1_DISC1>
RAW Paste Data
We use cookies for various purposes including analytics. By continuing to use Pastebin, you agree to our use of cookies as described in the Cookies Policy. OK, I Understand
 
Top