daily pastebin goal
78%
SHARE
TWEET

Untitled

a guest Jan 12th, 2018 284 Never
Not a member of Pastebin yet? Sign Up, it unlocks many cool features!
  1. Exact Audio Copy V1.0 beta 2 from 29. April 2011
  2.  
  3. EAC extraction logfile from 7. October 2011, 12:49
  4.  
  5. Erasure / Tomorrow's World (Special Edition)
  6.  
  7. Used drive  : HL-DT-STBD-RE BP06LU10   Adapter: 3  ID: 0
  8.  
  9. Read mode : Burst
  10.  
  11. Read offset correction                      : 667
  12. Overread into Lead-In and Lead-Out          : No
  13. Fill up missing offset samples with silence : Yes
  14. Delete leading and trailing silent blocks   : No
  15. Null samples used in CRC calculations       : Yes
  16. Used interface                              : Native Win32 interface for Win NT & 2000
  17. Gap handling                                : Appended to previous track
  18.  
  19. Used output format              : User Defined Encoder
  20. Selected bitrate                : 128 kBit/s
  21. Quality                         : High
  22. Add ID3 tag                     : No
  23. Command line compressor         : C:\Program Files (x86)\Exact Audio Copy\Flac\flac.exe
  24. Additional command line options : -8 -V -T "ARTIST=%artist%" -T "TITLE=%title%" -T "ALBUM=%albumtitle%" -T "DATE=%year%" -T "TRACKNUMBER=%tracknr%" -T "GENRE=%genre%" -T "PERFORMER=%albuminterpret%" -T "COMPOSER=%composer%" %haslyrics%--tag-from-file=LYRICS
  25.  
  26.  
  27. TOC of the extracted CD
  28.  
  29.      Track |   Start  |  Length  | Start sector | End sector
  30.     ---------------------------------------------------------
  31.         1  |  0:00.00 |  3:33.66 |         0    |    16040  
  32.         2  |  3:33.66 |  3:16.11 |     16041    |    30751  
  33.         3  |  6:50.02 |  3:42.67 |     30752    |    47468  
  34.         4  | 10:32.69 |  2:52.63 |     47469    |    60431  
  35.         5  | 13:25.57 |  3:46.21 |     60432    |    77402  
  36.         6  | 17:12.03 |  3:43.07 |     77403    |    94134  
  37.         7  | 20:55.10 |  3:15.22 |     94135    |   108781  
  38.         8  | 24:10.32 |  3:51.41 |    108782    |   126147  
  39.         9  | 28:01.73 |  3:40.34 |    126148    |   142681  
  40.  
  41.  
  42. Track  1
  43.  
  44.      Filename D:\what.cd\Erasure - Tomorrow's World 2011 FLAC\01 - Be With You.wav
  45.  
  46.      Pre-gap length  0:00:02.00
  47.  
  48.      Timing problem 0:00:00 - 0:03:33
  49.  
  50.      Peak level 99.9 %
  51.      Extraction speed 1.5 X
  52.      Test CRC D8B4B8BA
  53.      Copy CRC D8B4B8BA
  54.      Copy finished
  55.  
  56. No errors occurred
  57.  
  58. End of status report
  59.  
  60. ==== Log checksum 15DD1177A684F637707AD10265776A7B4BB86BD0446E62B7F07A5061FFB1956F ====
  61.  
  62. ------------------------------------------------------------
  63.  
  64. Exact Audio Copy V1.0 beta 2 from 29. April 2011
  65.  
  66. EAC extraction logfile from 7. October 2011, 13:42
  67.  
  68. Erasure / Tomorrow's World (Special Edition)
  69.  
  70. Used drive  : HL-DT-STDVDRAM GH22LS50   Adapter: 1  ID: 1
  71.  
  72. Read mode               : Secure
  73. Utilize accurate stream : Yes
  74. Defeat audio cache      : Yes
  75. Make use of C2 pointers : No
  76.  
  77. Read offset correction                      : 667
  78. Overread into Lead-In and Lead-Out          : No
  79. Fill up missing offset samples with silence : Yes
  80. Delete leading and trailing silent blocks   : No
  81. Null samples used in CRC calculations       : Yes
  82. Used interface                              : Native Win32 interface for Win NT & 2000
  83. Gap handling                                : Appended to previous track
  84.  
  85. Used output format              : User Defined Encoder
  86. Selected bitrate                : 128 kBit/s
  87. Quality                         : High
  88. Add ID3 tag                     : No
  89. Command line compressor         : C:\Program Files (x86)\Exact Audio Copy\Flac\flac.exe
  90. Additional command line options : -8 -V -T "ARTIST=%artist%" -T "TITLE=%title%" -T "ALBUM=%albumtitle%" -T "DATE=%year%" -T "TRACKNUMBER=%tracknr%" -T "GENRE=%genre%" -T "PERFORMER=%albuminterpret%" -T "COMPOSER=%composer%" %haslyrics%--tag-from-file=LYRICS
  91.  
  92.  
  93. TOC of the extracted CD
  94.  
  95.      Track |   Start  |  Length  | Start sector | End sector
  96.     ---------------------------------------------------------
  97.         1  |  0:00.00 |  3:33.66 |         0    |    16040  
  98.         2  |  3:33.66 |  3:16.11 |     16041    |    30751  
  99.         3  |  6:50.02 |  3:42.67 |     30752    |    47468  
  100.         4  | 10:32.69 |  2:52.63 |     47469    |    60431  
  101.         5  | 13:25.57 |  3:46.21 |     60432    |    77402  
  102.         6  | 17:12.03 |  3:43.07 |     77403    |    94134  
  103.         7  | 20:55.10 |  3:15.22 |     94135    |   108781  
  104.         8  | 24:10.32 |  3:51.41 |    108782    |   126147  
  105.         9  | 28:01.73 |  3:40.34 |    126148    |   142681  
  106.  
  107.  
  108. Track  1
  109.  
  110.      Filename D:\what.cd\Erasure - Tomorrow's World 2011 FLAC\01 - Be With You.wav
  111.  
  112.      Pre-gap length  0:00:02.00
  113.  
  114.      Peak level 99.9 %
  115.      Extraction speed 1.0 X
  116.      Track quality 100.0 %
  117.      Test CRC D8B4B8BA
  118.      Copy CRC D8B4B8BA
  119.      Track not present in AccurateRip database
  120.      Copy OK
  121.  
  122. Track  2
  123.  
  124.      Filename D:\what.cd\Erasure - Tomorrow's World 2011 FLAC\02 - Fill Us With Fire.wav
  125.  
  126.      Peak level 99.9 %
  127.      Extraction speed 1.0 X
  128.      Track quality 100.0 %
  129.      Test CRC 7E7887D4
  130.      Copy CRC 7E7887D4
  131.      Track not present in AccurateRip database
  132.      Copy OK
  133.  
  134. Track  3
  135.  
  136.      Filename D:\what.cd\Erasure - Tomorrow's World 2011 FLAC\03 - What Will I Say When You're Gone.wav
  137.  
  138.      Pre-gap length  0:00:00.62
  139.  
  140.      Peak level 99.9 %
  141.      Extraction speed 1.2 X
  142.      Track quality 100.0 %
  143.      Test CRC D0C8BF16
  144.      Copy CRC D0C8BF16
  145.      Track not present in AccurateRip database
  146.      Copy OK
  147.  
  148. Track  4
  149.  
  150.      Filename D:\what.cd\Erasure - Tomorrow's World 2011 FLAC\04 - You've Got To Save Me Right Now.wav
  151.  
  152.      Peak level 99.9 %
  153.      Extraction speed 1.2 X
  154.      Track quality 100.0 %
  155.      Test CRC 58DF9443
  156.      Copy CRC 58DF9443
  157.      Track not present in AccurateRip database
  158.      Copy OK
  159.  
  160. Track  5
  161.  
  162.      Filename D:\what.cd\Erasure - Tomorrow's World 2011 FLAC\05 - A Whole Lotta Love Run Riot.wav
  163.  
  164.      Peak level 99.9 %
  165.      Extraction speed 1.3 X
  166.      Track quality 100.0 %
  167.      Test CRC 7D4180CB
  168.      Copy CRC 7D4180CB
  169.      Track not present in AccurateRip database
  170.      Copy OK
  171.  
  172. Track  6
  173.  
  174.      Filename D:\what.cd\Erasure - Tomorrow's World 2011 FLAC\06 - When I Start To (Break It All Down).wav
  175.  
  176.      Peak level 99.9 %
  177.      Extraction speed 1.2 X
  178.      Track quality 99.9 %
  179.      Test CRC EBF01EE8
  180.      Copy CRC EBF01EE8
  181.      Track not present in AccurateRip database
  182.      Copy OK
  183.  
  184. Track  7
  185.  
  186.      Filename D:\what.cd\Erasure - Tomorrow's World 2011 FLAC\07 - I Lose Myself.wav
  187.  
  188.      Peak level 99.9 %
  189.      Extraction speed 1.5 X
  190.      Track quality 100.0 %
  191.      Test CRC 35705F89
  192.      Copy CRC 35705F89
  193.      Track not present in AccurateRip database
  194.      Copy OK
  195.  
  196. Track  8
  197.  
  198.      Filename D:\what.cd\Erasure - Tomorrow's World 2011 FLAC\08 - Then I Go Twisting.wav
  199.  
  200.      Peak level 99.9 %
  201.      Extraction speed 1.6 X
  202.      Track quality 100.0 %
  203.      Test CRC 8CBCCC63
  204.      Copy CRC 8CBCCC63
  205.      Track not present in AccurateRip database
  206.      Copy OK
  207.  
  208. Track  9
  209.  
  210.      Filename D:\what.cd\Erasure - Tomorrow's World 2011 FLAC\09 - Just When I Thought It Was Ending.wav
  211.  
  212.      Peak level 99.9 %
  213.      Extraction speed 1.4 X
  214.      Track quality 99.9 %
  215.      Test CRC 18D073D5
  216.      Copy CRC 18D073D5
  217.      Track not present in AccurateRip database
  218.      Copy OK
  219.  
  220.  
  221. None of the tracks are present in the AccurateRip database
  222.  
  223. No errors occurred
  224.  
  225. End of status report
  226.  
  227. ---- CUETools DB Plugin V2.1.2
  228.  
  229. [CTDB TOCID: XDyJJCTsrU3L3tIl_UGMOuuS3gg-] found, Submit result: XDyJJCTsrU3L3tIl_UGMOuuS3gg- has been confirmed
  230. [5a65de56] (2/2) Accurately ripped
  231.  
  232.  
  233. ==== Log checksum AD2D030FB3B6688F6B2BFBA2134E25FF57CB63BA3089E5DA525F35743AFE8DA4 ====
RAW Paste Data
We use cookies for various purposes including analytics. By continuing to use Pastebin, you agree to our use of cookies as described in the Cookies Policy. OK, I Understand
 
Top