daily pastebin goal
83%
SHARE
TWEET

Untitled

a guest Jul 19th, 2012 29 Never
Not a member of Pastebin yet? Sign Up, it unlocks many cool features!
  1. 2012-07-20 00:01:05   LiveConversion: >>
  2. 395821474B69747C697A763B5D72777E683B3363232D32475A72694D727F7E74487E696D7E69477A6D7874756D357E637E393B3636687E7C767E756F
  3. 36777E757C6F733B2F3B3636687E7C767E756F36747D7D687E6F3B222A2D3B36367874756D7E696872747536727F3B2A7D237D2D2A2D2F367F7D2E28
  4. 362F282A2A36227F2D7F362F28227E292F7E7F2F78792D2B29292B7A7A2979362D797D29362F292A293679232A2C36232F7F797D7A28222F7E2F2C3B
  5. 36366B74696F36756E76797E693B2F2D2D282A3B366F73697E7A7F683B2F3B3668683B222A2D352B3B36723B395F21475D72777E68474D727F7E7447
  6. 56623B4D727F7E74684756746D727E6847535F475877746E7F623B6C726F733B7A3B78737A75787E3B747D3B767E7A6F797A7777683576706D393B36
  7. 767A6B3B2B212B372B212B3B36767A6B3B2B212A372B212A3B366D7D3B397869746B262A29232B212E2F2F212B212B373B68787A777E262A29232B21
  8. 2E2F2F3778746B62393B367A686B7E786F3B2A29232B212E2F2F3B36623B367D3B766B7E7C6F683B367A7D3B7A686275786F68267874766B7E75687A
  9. 6F7E262A21767A63447874766B262F232B2B2B2B3B366D78747F7E783B77727963292D2F3B366D78747F7E783B78746B623B3679687D216D3B73292D
  10. 2F44766B2F6F747A75757E63793B367A78747F7E783B777279766B28777A767E3B367A793B292E2D703B367A693B2F232B2B2B3B367A783B293B36
  11. <<
  12.  
  13. 2012-07-20 00:01:06   SegmentedEncoder: avconv version 0.8, Copyright (c) 2000-2012 the Libav developers
  14. 2012-07-20 00:01:06   SegmentedEncoder:   built on Jul 18 2012 02:32:42 with gcc 4.5.2
  15. 2012-07-20 00:01:06   SegmentedEncoder: Input #0, matroska,webm, from '[PATH GOES HERE]\Cloudy with a chance of meatballs.mkv':
  16. 2012-07-20 00:01:06   SegmentedEncoder:   Duration: 01:29:53.39, start: 0.000000, bitrate: N/A
  17. 2012-07-20 00:01:06   SegmentedEncoder:     Stream #0.0(eng): Video: h264 (High), yuv420p, 1280x544, PAR 1:1 DAR 40:17, 23.98 fps, 23.98 tbr, 1k tbn, 47.95 tbc (default)
  18. 2012-07-20 00:01:06   SegmentedEncoder:     Stream #0.1: Audio: dca (DTS), 48000 Hz, 5.1, s16, 1536 kb/s (default)
  19. 2012-07-20 00:01:06   SegmentedEncoder: [mpegts @ 011c0520] muxrate VBR, pcr every 100 pkts, sdt every 200, pat/pmt every 40 pkts
  20. 2012-07-20 00:01:06   SegmentedEncoder: Output #0, mpegts, to 'pipe:':
  21. 2012-07-20 00:01:06   SegmentedEncoder:   Metadata:
  22. 2012-07-20 00:01:06   SegmentedEncoder:     encoder         : Lavf54.9.0
  23. 2012-07-20 00:01:06   SegmentedEncoder:     Stream #0.0(eng): Video: libx264, yuv420p, 1280x544 [PAR 1:1 DAR 40:17], q=2-31, 90k tbn, 1k tbc (default)
  24. 2012-07-20 00:01:06   SegmentedEncoder:     Stream #0.1: Audio: libmp3lame, 48000 Hz, stereo, s16, 256 kb/s (default)
  25. 2012-07-20 00:01:06   SegmentedEncoder: Stream mapping:
  26. 2012-07-20 00:01:06   SegmentedEncoder:   Stream #0:0 -> #0:0 (copy)
  27. 2012-07-20 00:01:06   SegmentedEncoder:   Stream #0:1 -> #0:1 (dca -> libmp3lame)
  28. 2012-07-20 00:01:06   SegmentedEncoder: Press ctrl-c to stop encoding
  29. 2012-07-20 00:01:06   SegmentedEncoder: frame=  201 fps=  0 q=-1.0 size=    8239kB time=6.30 bitrate=10718.4kbits/s    
  30. 2012-07-20 00:01:21   SegmentedEncoder: frame= 1107 fps= 73 q=-1.0 size=   48960kB time=44.07 bitrate=9100.9kbits/s    
  31. 2012-07-20 00:01:38   LiveConversion: >>
  32. 395821474B69747C697A763B5D72777E683B3363232D32475A72694D727F7E74487E696D7E69477A6D7874756D357E637E393B3636687E7C767E756F
  33. 36777E757C6F733B2F3B3636687E7C767E756F36747D7D687E6F3B22282D3B36367874756D7E696872747536727F3B237D237F7D2D782F367D7D2E23
  34. 362F2E2E783679237A2D362C7E2E222A78792922792E2879237F2328222F2B36222A2B7D362F792A2D367A28232B362C2A7A79222E787F2D7A79223B
  35. 36366B74696F36756E76797E693B2F2D2D282A3B366F73697E7A7F683B2F3B3668683B22282D352B3B36723B395F21475D72777E68474D727F7E7447
  36. 56623B4D727F7E74684756746D727E6847535F475877746E7F623B6C726F733B7A3B78737A75787E3B747D3B767E7A6F797A7777683576706D393B36
  37. 767A6B3B2B212B372B212B3B36767A6B3B2B212A372B212A3B366D7D3B397869746B262A29232B212E2F2F212B212B373B68787A777E262A29232B21
  38. 2E2F2F3778746B62393B367A686B7E786F3B2A29232B212E2F2F3B36623B367D3B766B7E7C6F683B367A7D3B7A686275786F68267874766B7E75687A
  39. 6F7E262A21767A63447874766B262F232B2B2B2B3B366D78747F7E783B77727963292D2F3B366D78747F7E783B77727963292D2F3B367D777A7C6829
  40. 3B307D7A686F3B367D777A7C683B307774746B3B367C3B282B3B36707E6272756F447672753B2A3B36797D3B2B3B367944686F697A6F7E7C623B2B3B
  41. 3678766B3B3078736974767A3B36697E7D683B2A3B3678747F7E693B2B3B36767E44697A757C7E3B2A2D3B36686E796A3B2E3B366B7A696F726F7274
  42. 75683B306B7A696F722F632F306B7A696F72236323306B7A696F6B2363233B366F697E777772683B2B3B366878446F73697E687374777F3B2F2B3B36
  43. 72446A7D7A786F74693B2B352C2A3B366A7874766B3B2B352D3B36796E7D6872617E3B2A2B292F703B36793B292A292E703B36796F3B29292E2B703B
  44. 366A767A633B2F233B366A7672753B293B36693B292835222C2E3B367A78747F7E783B777279766B28777A767E3B367A793B292E2D703B367A693B2F
  45. 232B2B2B3B367A783B293B36
  46. <<
  47.  
  48. 2012-07-20 00:01:39   SegmentedEncoder: avconv version 0.8, Copyright (c) 2000-2012 the Libav developers
  49. 2012-07-20 00:01:39   SegmentedEncoder:   built on Jul 18 2012 02:32:42 with gcc 4.5.2
  50. 2012-07-20 00:01:39   SegmentedEncoder: Input #0, matroska,webm, from '[PATH GOES HERE]\Cloudy with a chance of meatballs.mkv':
  51. 2012-07-20 00:01:39   SegmentedEncoder:   Duration: 01:29:53.39, start: 0.000000, bitrate: N/A
  52. 2012-07-20 00:01:39   SegmentedEncoder:     Stream #0.0(eng): Video: h264 (High), yuv420p, 1280x544, PAR 1:1 DAR 40:17, 23.98 fps, 23.98 tbr, 1k tbn, 47.95 tbc (default)
  53. 2012-07-20 00:01:39   SegmentedEncoder:     Stream #0.1: Audio: dca (DTS), 48000 Hz, 5.1, s16, 1536 kb/s (default)
  54. 2012-07-20 00:01:39   SegmentedEncoder: [libx264 @ 02ab08c0] VBV maxrate unspecified, assuming CBR
  55. 2012-07-20 00:01:39   SegmentedEncoder: [libx264 @ 02ab08c0] using SAR=1/1
  56. 2012-07-20 00:01:39   SegmentedEncoder: [libx264 @ 02ab08c0] using cpu capabilities: MMX2 SSE2Fast SSSE3 FastShuffle SSE4.2
  57. 2012-07-20 00:01:39   SegmentedEncoder: [libx264 @ 02ab08c0] profile High, level 3.1
  58. 2012-07-20 00:01:39   SegmentedEncoder: [mpegts @ 02aabca0] muxrate VBR, pcr every 2 pkts, sdt every 200, pat/pmt every 40 pkts
  59. 2012-07-20 00:01:39   SegmentedEncoder: Output #0, mpegts, to 'pipe:':
  60. 2012-07-20 00:01:39   SegmentedEncoder:   Metadata:
  61. 2012-07-20 00:01:39   SegmentedEncoder:     encoder         : Lavf54.9.0
  62. 2012-07-20 00:01:39   SegmentedEncoder:     Stream #0.0(eng): Video: libx264, yuv420p, 1280x544 [PAR 1:1 DAR 40:17], q=2-48, 2125 kb/s, 90k tbn, 23.98 tbc (default)
  63. 2012-07-20 00:01:39   SegmentedEncoder:     Stream #0.1: Audio: libmp3lame, 48000 Hz, stereo, s16, 256 kb/s (default)
  64. 2012-07-20 00:01:39   SegmentedEncoder: Stream mapping:
  65. 2012-07-20 00:01:39   SegmentedEncoder:   Stream #0:0 -> #0:0 (h264 -> libx264)
  66. 2012-07-20 00:01:39   SegmentedEncoder:   Stream #0:1 -> #0:1 (dca -> libmp3lame)
  67. 2012-07-20 00:01:39   SegmentedEncoder: Press ctrl-c to stop encoding
  68. 2012-07-20 00:01:39   SegmentedEncoder: [libx264 @ 02ab08c0] non-strictly-monotonic PTS
  69. 2012-07-20 00:01:39   SegmentedEncoder: frame=   58 fps=  0 q=29.0 size=     106kB time=0.50 bitrate=1739.8kbits/s    
  70. 2012-07-20 00:01:44   SegmentedEncoder: frame=  525 fps= 94 q=31.0 size=    6181kB time=19.98 bitrate=2534.3kbits/s    
  71. 2012-07-20 00:01:49   SegmentedEncoder: frame=  997 fps= 94 q=34.0 size=   12213kB time=39.67 bitrate=2522.4kbits/s    
  72. 2012-07-20 00:01:54   SegmentedEncoder: frame= 1460 fps= 93 q=21.0 size=   18205kB time=58.98 bitrate=2528.6kbits/s    
  73. 2012-07-20 00:02:07   SegmentedEncoder: frame= 1965 fps= 68 q=28.0 size=   24589kB time=80.04 bitrate=2516.6kbits/s
RAW Paste Data
We use cookies for various purposes including analytics. By continuing to use Pastebin, you agree to our use of cookies as described in the Cookies Policy. OK, I Understand
 
Top