SHARE
TWEET

Untitled

a guest Feb 11th, 2015 173 Never
Not a member of Pastebin yet? Sign Up, it unlocks many cool features!
  1. D:\Kylo\Jobs\Frontier\EltDangerous\CameraRolls\Roll1>c:\ffmpeg -i SHOGUN_S001_S001_T001.MOV -c:a c
  2. opy -c:v copy out.mov
  3. ffmpeg version N-57245-gf6b56b1 Copyright (c) 2000-2013 the FFmpeg developers
  4.   built on Oct 18 2013 18:08:17 with gcc 4.8.2 (GCC)
  5.   configuration: --enable-gpl --enable-version3 --disable-w32threads --enable-av
  6. isynth --enable-bzlib --enable-fontconfig --enable-frei0r --enable-gnutls --enab
  7. le-iconv --enable-libass --enable-libbluray --enable-libcaca --enable-libfreetyp
  8. e --enable-libgsm --enable-libilbc --enable-libmodplug --enable-libmp3lame --ena
  9. ble-libopencore-amrnb --enable-libopencore-amrwb --enable-libopenjpeg --enable-l
  10. ibopus --enable-librtmp --enable-libschroedinger --enable-libsoxr --enable-libsp
  11. eex --enable-libtheora --enable-libtwolame --enable-libvidstab --enable-libvo-aa
  12. cenc --enable-libvo-amrwbenc --enable-libvorbis --enable-libvpx --enable-libwavp
  13. ack --enable-libx264 --enable-libxavs --enable-libxvid --enable-zlib
  14.   libavutil      52. 47.100 / 52. 47.100
  15.   libavcodec     55. 37.101 / 55. 37.101
  16.   libavformat    55. 19.102 / 55. 19.102
  17.   libavdevice    55.  4.100 / 55.  4.100
  18.   libavfilter     3. 88.101 /  3. 88.101
  19.   libswscale      2.  5.101 /  2.  5.101
  20.   libswresample   0. 17.104 /  0. 17.104
  21.   libpostproc    52.  3.100 / 52.  3.100
  22. [mov,mp4,m4a,3gp,3g2,mj2 @ 00000000027ed900] Stream #0: not enough frames to est
  23. imate rate; consider increasing probesize
  24. [mov,mp4,m4a,3gp,3g2,mj2 @ 00000000027ed900] Stream #2: not enough frames to est
  25. imate rate; consider increasing probesize
  26. Guessed Channel Layout for  Input Stream #0.0 : 4.0
  27. Input #0, mov,mp4,m4a,3gp,3g2,mj2, from 'SHOGUN_S001_S001_T001.MOV':
  28.   Metadata:
  29.     major_brand     : qt
  30.     minor_version   : 537199360
  31.     compatible_brands: qt
  32.     creation_time   : 2014-02-25 22:03:29
  33.     make            : Atomos
  34.     make-eng        : Atomos
  35.     encoder         : Shogun - 6.0
  36.     encoder-eng     : Shogun - 6.0
  37.     timecode        : 00:00:00:00
  38.   Duration: 00:00:03.32, start: 0.000000, bitrate: 756199 kb/s
  39.     Stream #0:0(eng): Audio: pcm_s24le (in24 / 0x34326E69), 48000 Hz, 4.0, s32,
  40. 4608 kb/s (default)
  41.     Metadata:
  42.       creation_time   : 2014-02-25 22:03:29
  43.     Stream #0:1(eng): Video: prores (apch / 0x68637061), yuv422p10le, 3840x2160,
  44.  751347 kb/s, SAR 1:1 DAR 16:9, 25 fps, 25 tbr, 2500 tbn, 2500 tbc (default)
  45.     Metadata:
  46.       creation_time   : 2014-02-25 22:03:29
  47.     Stream #0:2(eng): Data: none (tmcd / 0x64636D74), 0 kb/s (default)
  48.     Metadata:
  49.       creation_time   : 2014-02-25 22:03:29
  50.       timecode        : 00:00:00:00
  51. Output #0, mov, to 'out.mov':
  52.   Metadata:
  53.     major_brand     : qt
  54.     minor_version   : 537199360
  55.     compatible_brands: qt
  56.     timecode        : 00:00:00:00
  57.     make            : Atomos
  58.     make-eng        : Atomos
  59.     encoder-eng     : Shogun - 6.0
  60.     encoder         : Lavf55.19.102
  61.     Stream #0:0(eng): Video: prores (apch / 0x68637061), yuv422p10le, 3840x2160
  62. [SAR 1:1 DAR 16:9], q=2-31, 751347 kb/s, 25 fps, 10k tbn, 2500 tbc (default)
  63.     Metadata:
  64.       creation_time   : 2014-02-25 22:03:29
  65.     Stream #0:1(eng): Audio: pcm_s24le (in24 / 0x34326E69), 48000 Hz, 4.0, 4608
  66. kb/s (default)
  67.     Metadata:
  68.       creation_time   : 2014-02-25 22:03:29
  69. Stream mapping:
  70.   Stream #0:1 -> #0:0 (copy)
  71.   Stream #0:0 -> #0:1 (copy)
  72. Press [q] to stop, [?] for help
  73. frame=   39 fps=0.0 q=-1.0 size=   99647kB time=00:00:01.52 bitrate=536901.1kbit
  74. frame=   75 fps= 74 q=-1.0 size=  239923kB time=00:00:02.96 bitrate=663912.1kbit
  75. frame=   83 fps= 67 q=-1.0 Lsize=  306462kB time=00:00:03.48 bitrate=721417.7kbi
  76. ts/s
  77. video:304501kB audio:1958kB subtitle:0 global headers:0kB muxing overhead 0.0010
  78. 16%
  79.  
  80. D:\HighlyRecommended\Footage\Roll1>
RAW Paste Data
We use cookies for various purposes including analytics. By continuing to use Pastebin, you agree to our use of cookies as described in the Cookies Policy. OK, I Understand
 
Top