daily pastebin goal
31%
SHARE
TWEET

Dead Again in Tombstone (2017) BRRip Full HD 1080p Latino -

DeviilHD Sep 2nd, 2017 (edited) 90 Never
Not a member of Pastebin yet? Sign Up, it unlocks many cool features!
  1. General
  2. Unique ID                      : 181123876827346708717359432505814287860 (0x88433096E607C90AA2ACD1FB455E05F4)
  3. Complete name                  : Dead Again in Tombstone (2017) HD 1080p Latino Ingles.mkv
  4. Format                         : Matroska
  5. Format version                 : Version 4 / Version 2
  6. File size                      : 3.59 GiB
  7. Duration                       : 1 h 39 min
  8. Overall bit rate               : 5 187 kb/s
  9. Movie name                     : Dead Again in Tombstone (2017) HD 1080p Latino Ingles
  10. Encoded date                   : UTC 2017-09-02 16:03:08
  11. Writing application            : mkvmerge v9.5.0 ('Quiet Fire') 64bit
  12. Writing library                : libebml v1.3.4 + libmatroska v1.4.5
  13.  
  14. Video
  15. ID                             : 1
  16. Format                         : AVC
  17. Format/Info                    : Advanced Video Codec
  18. Format profile                 : Main@L4
  19. Format settings, CABAC         : Yes
  20. Format settings, RefFrames     : 4 frames
  21. Codec ID                       : V_MPEG4/ISO/AVC
  22. Duration                       : 1 h 39 min
  23. Bit rate                       : 4 545 kb/s
  24. Width                          : 1 920 pixels
  25. Height                         : 1 080 pixels
  26. Display aspect ratio           : 16:9
  27. Frame rate mode                : Constant
  28. Frame rate                     : 23.976 (24000/1001) FPS
  29. Color space                    : YUV
  30. Chroma subsampling             : 4:2:0
  31. Bit depth                      : 8 bits
  32. Scan type                      : Progressive
  33. Bits/(Pixel*Frame)             : 0.091
  34. Stream size                    : 3.15 GiB (88%)
  35. Writing library                : x264 core 142 r2479 dd79a61
  36. Encoding settings              : cabac=1 / ref=1 / deblock=1:0:0 / analyse=0x1:0x111 / me=hex / subme=2 / psy=1 / psy_rd=1.00:0.00 / mixed_ref=0 / me_range=16 / chroma_me=1 / trellis=0 / 8x8dct=0 / cqm=0 / deadzone=21,11 / fast_pskip=1 / chroma_qp_offset=0 / threads=36 / lookahead_threads=8 / sliced_threads=0 / nr=0 / decimate=1 / interlaced=0 / bluray_compat=0 / constrained_intra=0 / bframes=3 / b_pyramid=2 / b_adapt=1 / b_bias=0 / direct=1 / weightb=1 / open_gop=0 / weightp=1 / keyint=240 / keyint_min=24 / scenecut=40 / intra_refresh=0 / rc_lookahead=10 / rc=crf / mbtree=1 / crf=20.0 / qcomp=0.60 / qpmin=0 / qpmax=69 / qpstep=4 / vbv_maxrate=20000 / vbv_bufsize=25000 / crf_max=0.0 / nal_hrd=none / filler=0 / ip_ratio=1.40 / aq=1:1.00
  37. Default                        : Yes
  38. Forced                         : No
  39. Color range                    : Limited
  40. Color primaries                : BT.709
  41. Transfer characteristics       : BT.709
  42. Matrix coefficients            : BT.709
  43.  
  44. Audio #1
  45. ID                             : 2
  46. Format                         : AC-3
  47. Format/Info                    : Audio Coding 3
  48. Format settings, Endianness    : Big
  49. Codec ID                       : A_AC3
  50. Duration                       : 1 h 39 min
  51. Bit rate mode                  : Constant
  52. Bit rate                       : 320 kb/s
  53. Channel(s)                     : 6 channels
  54. Channel positions              : Front: L C R, Side: L R, LFE
  55. Sampling rate                  : 48.0 kHz
  56. Frame rate                     : 31.250 FPS (1536 SPF)
  57. Bit depth                      : 16 bits
  58. Compression mode               : Lossy
  59. Delay relative to video        : -5 ms
  60. Stream size                    : 227 MiB (6%)
  61. Title                          : Latino
  62. Language                       : Spanish
  63. Service kind                   : Complete Main
  64. Default                        : Yes
  65. Forced                         : No
  66.  
  67. Audio #2
  68. ID                             : 3
  69. Format                         : AC-3
  70. Format/Info                    : Audio Coding 3
  71. Format settings, Endianness    : Big
  72. Codec ID                       : A_AC3
  73. Duration                       : 1 h 39 min
  74. Bit rate mode                  : Constant
  75. Bit rate                       : 320 kb/s
  76. Channel(s)                     : 6 channels
  77. Channel positions              : Front: L C R, Side: L R, LFE
  78. Sampling rate                  : 48.0 kHz
  79. Frame rate                     : 31.250 FPS (1536 SPF)
  80. Bit depth                      : 16 bits
  81. Compression mode               : Lossy
  82. Delay relative to video        : -5 ms
  83. Stream size                    : 227 MiB (6%)
  84. Title                          : Ingles
  85. Language                       : English
  86. Service kind                   : Complete Main
  87. Default                        : No
  88. Forced                         : No
  89.  
  90. Text #1
  91. ID                             : 4
  92. Format                         : UTF-8
  93. Codec ID                       : S_TEXT/UTF8
  94. Codec ID/Info                  : UTF-8 Plain Text
  95. Duration                       : 1 h 34 min
  96. Bit rate                       : 35 b/s
  97. Count of elements              : 869
  98. Stream size                    : 24.5 KiB (0%)
  99. Title                          : Español
  100. Language                       : Spanish
  101. Default                        : Yes
  102. Forced                         : No
  103.  
  104. Text #2
  105. ID                             : 5
  106. Format                         : UTF-8
  107. Codec ID                       : S_TEXT/UTF8
  108. Codec ID/Info                  : UTF-8 Plain Text
  109. Duration                       : 1 h 34 min
  110. Bit rate                       : 35 b/s
  111. Count of elements              : 892
  112. Stream size                    : 24.7 KiB (0%)
  113. Title                          : Sub Ingles
  114. Language                       : English
  115. Default                        : No
  116. Forced                         : No
  117.  
  118. Menu
  119. 00:00:00.000                   : :Chapter 01
  120. 00:05:00.000                   : :Chapter 02
  121. 00:10:00.000                   : :Chapter 03
  122. 00:15:00.000                   : :Chapter 04
  123. 00:20:00.000                   : :Chapter 05
  124. 00:25:00.000                   : :Chapter 06
  125. 00:30:00.000                   : :Chapter 07
  126. 00:35:00.000                   : :Chapter 08
  127. 00:40:00.000                   : :Chapter 09
  128. 00:45:00.000                   : :Chapter 10
  129. 00:50:00.000                   : :Chapter 11
  130. 00:55:00.000                   : :Chapter 12
  131. 01:00:00.000                   : :Chapter 13
  132. 01:05:00.000                   : :Chapter 14
  133. 01:10:00.000                   : :Chapter 15
  134. 01:15:00.000                   : :Chapter 16
  135. 01:20:00.000                   : :Chapter 17
  136. 01:25:00.000                   : :Chapter 18
  137. 01:30:00.000                   : :Chapter 19
  138. 01:35:00.000                   : :Chapter 20
RAW Paste Data
We use cookies for various purposes including analytics. By continuing to use Pastebin, you agree to our use of cookies as described in the Cookies Policy. OK, I Understand
 
Top