Guest User

dadasjoidas01e01

a guest
Mar 27th, 2018
223
Never
Not a member of Pastebin yet? Sign Up, it unlocks many cool features!
  1. General
  2. Unique ID : 176997111347393695172978449159427023556 (0x85286757AA058FF490E42815CEFD62C4)
  3. Complete name : [Man.K]Ookiku_Furikabutte_S1_-_01_[N]_(Dual Audio_10bit_BD1080p_x265).mkv
  4. Format : Matroska
  5. Format version : Version 4 / Version 2
  6. File size : 203 MiB
  7. Duration : 24 min 11 s
  8. Overall bit rate : 1 175 kb/s
  9. Encoded date : UTC 2018-03-25 16:03:13
  10. Writing application : mkvmerge v16.0.0 ('Protest') 32-bit
  11. Writing library : libebml v1.3.5 + libmatroska v1.4.8
  12. Encoding Gui : Hybrid 2017.10.05.1
  13.  
  14. Video
  15. ID : 1
  16. Format : HEVC
  17. Format/Info : High Efficiency Video Coding
  18. Format profile : Main 10@L4@Main
  19. Codec ID : V_MPEGH/ISO/HEVC
  20. Duration : 24 min 11 s
  21. Bit rate : 912 kb/s
  22. Width : 1 920 pixels
  23. Height : 1 080 pixels
  24. Display aspect ratio : 16:9
  25. Frame rate mode : Constant
  26. Frame rate : 23.976 (24000/1001) FPS
  27. Color space : YUV
  28. Chroma subsampling : 4:2:0
  29. Bit depth : 10 bits
  30. Bits/(Pixel*Frame) : 0.018
  31. Stream size : 158 MiB (78%)
  32. Writing library : x265 2.5+20-0967d0add97e:[Windows][GCC 7.2.0][64 bit] 10bit
  33. Encoding settings : cpuid=1173503 / frame-threads=2 / numa-pools=4 / wpp / no-pmode / no-pme / no-psnr / no-ssim / log-level=2 / input-csp=1 / input-res=1920x1080 / interlace=0 / total-frames=0 / level-idc=0 / high-tier=1 / uhd-bd=0 / ref=3 / no-allow-non-conformance / no-repeat-headers / annexb / no-aud / no-hrd / info / hash=0 / no-temporal-layers / no-open-gop / min-keyint=23 / keyint=250 / bframes=4 / b-adapt=2 / b-pyramid / bframe-bias=0 / rc-lookahead=20 / lookahead-slices=0 / scenecut=40 / no-intra-refresh / ctu=64 / min-cu-size=8 / no-rect / no-amp / max-tu-size=32 / tu-inter-depth=1 / tu-intra-depth=1 / limit-tu=0 / rdoq-level=2 / dynamic-rd=0.00 / no-ssim-rd / signhide / no-tskip / nr-intra=0 / nr-inter=0 / no-constrained-intra / strong-intra-smoothing / max-merge=2 / limit-refs=3 / limit-modes / me=1 / subme=2 / merange=57 / temporal-mvp / weightp / no-weightb / no-analyze-src-pics / deblock=-1:-1 / sao / no-sao-non-deblock / rd=3 / no-early-skip / rskip / no-fast-intra / no-tskip-fast / no-cu-lossless / no-b-intra / no-splitrd-skip / rdpenalty=0 / psy-rd=2.50 / psy-rdoq=10.00 / no-rd-refine / analysis-reuse-mode=0 / no-lossless / cbqpoffs=-2 / crqpoffs=-2 / rc=crf / crf=22.0 / qcomp=0.60 / qpstep=4 / stats-write=0 / stats-read=0 / ipratio=1.40 / pbratio=1.30 / aq-mode=1 / aq-strength=0.00 / cutree / zone-count=0 / no-strict-cbr / qg-size=32 / no-rc-grain / qpmax=69 / qpmin=0 / no-const-vbv / sar=1 / overscan=0 / videoformat=5 / range=0 / colorprim=2 / transfer=2 / colormatrix=5 / chromaloc=0 / display-window=0 / max-cll=0,0 / min-luma=0 / max-luma=1023 / log2-max-poc-lsb=8 / vui-timing-info / vui-hrd-info / slices=1 / opt-qp-pps / opt-ref-list-length-pps / no-multi-pass-opt-rps / scenecut-bias=0.05 / no-opt-cu-delta-qp / no-aq-motion / no-hdr / no-hdr-opt / no-dhdr10-opt / analysis-reuse-level=5 / scale-factor=0 / refine-intra=0 / refine-inter=0 / refine-mv=0 / limit-sao / ctu-info=0
  34. Language : Japanese
  35. Default : Yes
  36. Forced : Yes
  37. Color range : Limited
  38. Matrix coefficients : BT.470 System B/G
  39.  
  40. Audio #1
  41. ID : 2
  42. Format : AAC
  43. Format/Info : Advanced Audio Codec
  44. Format profile : LC
  45. Codec ID : A_AAC-2
  46. Duration : 24 min 11 s
  47. Bit rate : 128 kb/s
  48. Channel(s) : 6 channels
  49. Channel positions : Front: L C R, Side: L R, LFE
  50. Sampling rate : 48.0 kHz
  51. Frame rate : 46.875 FPS (1024 SPF)
  52. Compression mode : Lossy
  53. Delay relative to video : 21 ms
  54. Stream size : 22.1 MiB (11%)
  55. Language : English
  56. Default : Yes
  57. Forced : No
  58.  
  59. Audio #2
  60. ID : 3
  61. Format : AAC
  62. Format/Info : Advanced Audio Codec
  63. Format profile : LC
  64. Codec ID : A_AAC-2
  65. Duration : 24 min 11 s
  66. Bit rate : 132 kb/s
  67. Channel(s) : 2 channels
  68. Channel positions : Front: L R
  69. Sampling rate : 48.0 kHz
  70. Frame rate : 46.875 FPS (1024 SPF)
  71. Compression mode : Lossy
  72. Delay relative to video : 21 ms
  73. Stream size : 22.8 MiB (11%)
  74. Language : Japanese
  75. Default : No
  76. Forced : No
  77.  
  78. Text
  79. ID : 4
  80. Format : ASS
  81. Codec ID : S_TEXT/ASS
  82. Codec ID/Info : Advanced Sub Station Alpha
  83. Duration : 23 min 50 s
  84. Bit rate : 175 b/s
  85. Count of elements : 385
  86. Compression mode : Lossless
  87. Stream size : 30.6 KiB (0%)
  88. Language : English
  89. Default : No
  90. Forced : No
  91.  
  92. Menu
  93. 00:00:00.000 : en:Chapter 1
  94. 00:01:17.933 : en:Chapter 2
  95. 00:02:47.733 : en:Chapter 3
  96. 00:12:38.133 : en:Chapter 4
  97. 00:22:09.533 : en:Chapter 5
  98. 00:23:39.467 : en:Chapter 6
RAW Paste Data