Interfilm

Untitled

Jun 7th, 2014
221
Never
Not a member of Pastebin yet? Sign Up, it unlocks many cool features!
  1. Общее
  2. Way.Back.Home.2013.Blu.Ray.720p.CINEMANIA.mkv
  3. Формат : Matroska
  4. Версия формата : Version 4 / Version 2
  5. Размер файла : 5,24 Гбайт
  6. Продолжительность : 2 ч. 10 м.
  7. Общий поток : 5740 Кбит/сек
  8. Название фильма : Release Group CINEMANIA
  9. Дата кодирования : UTC 2014-06-07 13:27:53
  10. Программа кодирования : mkvmerge v6.9.1 ('Blue Panther') 64bit built on Apr 18 2014 18:23:38
  11. Библиотека кодирования : libebml v1.3.0 + libmatroska v1.4.1
  12.  
  13. Видео
  14. Идентификатор : 1
  15. Формат : AVC
  16. Формат/Информация : Advanced Video Codec
  17. Профиль формата : High@L4.1
  18. Параметр CABAC формата : Да
  19. Параметр ReFrames формата : 12 кадров
  20. Идентификатор кодека : V_MPEG4/ISO/AVC
  21. Продолжительность : 2 ч. 10 м.
  22. Битрейт : 4794 Кбит/сек
  23. Ширина : 1280 пикселей
  24. Высота : 544 пикселя
  25. Соотношение сторон : 2,35:1
  26. Режим частоты кадров : Постоянный
  27. Частота кадров : 23,976 кадра/сек
  28. Цветовое пространство : YUV
  29. Субдискретизация насыщенности : 4:2:0
  30. Битовая глубина : 8 бит
  31. Тип развёртки : Прогрессивная
  32. Бит/(Пиксели*Кадры) : 0.287
  33. Размер потока : 4,38 Гбайт (84%)
  34. Заголовок : Release Group CINEMANIA
  35. Библиотека кодирования : x264 core 142 r2431kMod ac76440
  36. Настройки программы : cabac=1 / ref=12 / deblock=1:-3:-3 / analyse=0x3:0x133 / me=tesa / subme=11 / psy=1 / fade_compensate=0.00 / psy_rd=1.00:0.00 / mixed_ref=1 / me_range=24 / chroma_me=1 / trellis=2 / 8x8dct=1 / cqm=0 / deadzone=21,11 / fast_pskip=0 / chroma_qp_offset=-2 / threads=12 / lookahead_threads=2 / sliced_threads=0 / nr=0 / decimate=1 / interlaced=0 / bluray_compat=0 / constrained_intra=0 / fgo=0 / bframes=7 / b_pyramid=2 / b_adapt=2 / b_bias=0 / direct=3 / weightb=1 / open_gop=0 / weightp=2 / keyint=250 / keyint_min=23 / scenecut=40 / intra_refresh=0 / rc=crf / mbtree=0 / crf=15.7000 / qcomp=0.65 / qpmin=0 / qpmax=69 / qpstep=4 / ip_ratio=1.30 / pb_ratio=1.20 / aq=1:0.70
  37. Язык : English
  38. Default : Да
  39. Forced : Нет
  40. Коэффициенты матрицы : BT.709
  41.  
  42. Аудио #1
  43. Идентификатор : 2
  44. Формат : AC-3
  45. Формат/Информация : Audio Coding 3
  46. Расширение режима : CM (complete main)
  47. Параметр Endianness формата : Big
  48. Идентификатор кодека : A_AC3
  49. Продолжительность : 2 ч. 10 м.
  50. Вид битрейта : Постоянный
  51. Битрейт : 192 Кбит/сек
  52. Каналы : 2 канала
  53. Расположение каналов : Front: L R
  54. Частота : 48,0 КГц
  55. Битовая глубина : 16 бит
  56. Метод сжатия : С потерями
  57. Размер потока : 180 Мбайт (3%)
  58. Заголовок : D.I.M.
  59. Язык : Russian
  60. Default : Да
  61. Forced : Да
  62.  
  63. Аудио #2
  64. Идентификатор : 3
  65. Формат : AC-3
  66. Формат/Информация : Audio Coding 3
  67. Расширение режима : CM (complete main)
  68. Параметр Endianness формата : Big
  69. Идентификатор кодека : A_AC3
  70. Продолжительность : 2 ч. 10 м.
  71. Вид битрейта : Постоянный
  72. Битрейт : 640 Кбит/сек
  73. Каналы : 6 каналов
  74. Расположение каналов : Front: L C R, Side: L R, LFE
  75. Частота : 48,0 КГц
  76. Битовая глубина : 16 бит
  77. Метод сжатия : С потерями
  78. Размер потока : 599 Мбайт (11%)
  79. Язык : Korean
  80. Default : Нет
  81. Forced : Нет
  82.  
  83. Текст
  84. Идентификатор : 4
  85. Формат : UTF-8
  86. Идентификатор кодека : S_TEXT/UTF8
  87. Идентификатор кодека/Информация : UTF-8 Plain Text
  88. Язык : English
  89. Default : Нет
  90. Forced : Нет
  91.  
  92. Меню
  93. 00:00:00.000 : en:00:00:00.000
  94. 00:02:51.505 : en:00:02:51.505
  95. 00:09:36.117 : en:00:09:36.117
  96. 00:16:11.387 : en:00:16:11.387
  97. 00:23:16.895 : en:00:23:16.895
  98. 00:28:02.890 : en:00:28:02.890
  99. 00:32:02.587 : en:00:32:02.587
  100. 00:37:27.954 : en:00:37:27.954
  101. 00:41:02.251 : en:00:41:02.251
  102. 00:45:57.046 : en:00:45:57.046
  103. 00:52:18.594 : en:00:52:18.594
  104. 00:59:25.729 : en:00:59:25.729
  105. 01:04:11.097 : en:01:04:11.097
  106. 01:12:00.525 : en:01:12:00.525
  107. 01:21:45.275 : en:01:21:45.275
  108. 01:30:55.992 : en:01:30:55.992
  109. 01:36:29.033 : en:01:36:29.033
  110. 01:43:16.399 : en:01:43:16.399
  111. 01:48:35.050 : en:01:48:35.050
  112. 01:52:24.154 : en:01:52:24.154
  113. 01:59:26.701 : en:01:59:26.701
  114. 02:03:24.355 : en:02:03:24.355
RAW Paste Data