trds

Untitled

Nov 17th, 2021
165
Never
Not a member of Pastebin yet? Sign Up, it unlocks many cool features!
  1. General
  2. Unique ID                                : 171300873135346554126214924873009148898 (0x80DF591D8C1471EEA555682EE09333E2)
  3. Format                                   : Matroska
  4. Format version                           : Version 4 / Version 2
  5. File size                                : 10.6 GiB
  6. Duration                                 : 1h 42mn
  7. Overall bit rate                         : 14.8 Mbps
  8. Movie name                               : Crouching Tiger, Hidden Dragon: Sword of Destiny 2016 1080p BluRay DD5.1 x264-GrupoHDS
  9. Encoded date                             : UTC 2016-04-13 15:02:21
  10. Writing application                      : mkvmerge v7.8.0 ('River Man') 64bit built on Mar 27 2015 16:31:37
  11. Writing library                          : libebml v1.3.1 + libmatroska v1.4.2
  12.  
  13. Video
  14. ID                                       : 1
  15. Format                                   : AVC
  16. Format/Info                              : Advanced Video Codec
  17. Format profile                           : High@L4.1
  18. Format settings, CABAC                   : Yes
  19. Format settings, ReFrames                : 5 frames
  20. Codec ID                                 : V_MPEG4/ISO/AVC
  21. Duration                                 : 1h 42mn
  22. Bit rate                                 : 13.9 Mbps
  23. Width                                    : 1 920 pixels
  24. Height                                   : 804 pixels
  25. Display aspect ratio                     : 2.40:1
  26. Frame rate mode                          : Constant
  27. Frame rate                               : 23.976 fps
  28. Color space                              : YUV
  29. Chroma subsampling                       : 4:2:0
  30. Bit depth                                : 8 bits
  31. Scan type                                : Progressive
  32. Bits/(Pixel*Frame)                       : 0.375
  33. Stream size                              : 9.94 GiB (94%)
  34. Title                                    : Crouching Tiger, Hidden Dragon: Sword of Destiny 2016 1080p BluRay DD5.1 x264-GrupoHDS
  35. Writing library                          : x264 core 148 r2665 a01e339
  36. Encoding settings                        : cabac=1 / ref=5 / deblock=1:-3:-3 / analyse=0x3:0x133 / me=umh / subme=11 / psy=1 / psy_rd=1.10:0.00 / mixed_ref=1 / me_range=32 / chroma_me=1 / trellis=2 / 8x8dct=1 / cqm=0 / deadzone=21,11 / fast_pskip=0 / chroma_qp_offset=-2 / threads=18 / lookahead_threads=3 / sliced_threads=0 / nr=0 / decimate=0 / interlaced=0 / bluray_compat=0 / constrained_intra=0 / bframes=8 / b_pyramid=2 / b_adapt=2 / b_bias=0 / direct=3 / weightb=1 / open_gop=0 / weightp=2 / keyint=240 / keyint_min=23 / scenecut=40 / intra_refresh=0 / rc_lookahead=60 / rc=crf / mbtree=0 / crf=17.0 / qcomp=0.70 / qpmin=0 / qpmax=51 / qpstep=4 / vbv_maxrate=40000 / vbv_bufsize=40000 / crf_max=0.0 / nal_hrd=none / filler=0 / ip_ratio=1.20 / pb_ratio=1.20 / aq=3:0.60
  37. Language                                 : Chinese
  38. Default                                  : Yes
  39. Forced                                   : No
  40.  
  41. Audio
  42. ID                                       : 2
  43. Format                                   : AC-3
  44. Format/Info                              : Audio Coding 3
  45. Mode extension                           : CM (complete main)
  46. Format settings, Endianness              : Big
  47. Codec ID                                 : A_AC3
  48. Duration                                 : 1h 42mn
  49. Bit rate mode                            : Constant
  50. Bit rate                                 : 640 Kbps
  51. Channel(s)                               : 6 channels
  52. Channel positions                        : Front: L C R, Side: L R, LFE
  53. Sampling rate                            : 48.0 KHz
  54. Bit depth                                : 16 bits
  55. Compression mode                         : Lossy
  56. Stream size                              : 469 MiB (4%)
  57. Title                                    : DD 5.1 @ 640 Kbps -> Netflix
  58. Language                                 : English
  59. Default                                  : No
  60. Forced                                   : No
  61.  
  62. Text #1
  63. ID                                       : 3
  64. Format                                   : UTF-8
  65. Codec ID                                 : S_TEXT/UTF8
  66. Codec ID/Info                            : UTF-8 Plain Text
  67. Title                                    : Forced
  68. Language                                 : English
  69. Default                                  : Yes
  70. Forced                                   : Yes
  71.  
  72. Text #2
  73. ID                                       : 4
  74. Format                                   : UTF-8
  75. Codec ID                                 : S_TEXT/UTF8
  76. Codec ID/Info                            : UTF-8 Plain Text
  77. Language                                 : English
  78. Default                                  : No
  79. Forced                                   : No
  80.  
  81. Text #3
  82. ID                                       : 5
  83. Format                                   : UTF-8
  84. Codec ID                                 : S_TEXT/UTF8
  85. Codec ID/Info                            : UTF-8 Plain Text
  86. Language                                 : Spanish
  87. Default                                  : No
  88. Forced                                   : No
  89.  
  90. Menu
  91. 00:00:00.000                             : en:00:00:00.000
  92. 00:07:52.514                             : en:00:07:52.514
  93. 00:17:19.288                             : en:00:17:19.288
  94. 00:23:26.196                             : en:00:23:26.196
  95. 00:35:37.552                             : en:00:35:37.552
  96. 00:45:17.840                             : en:00:45:17.840
  97. 00:50:26.148                             : en:00:50:26.148
  98. 00:57:38.872                             : en:00:57:38.872
  99. 01:09:58.903                             : en:01:09:58.903
  100. 01:18:32.499                             : en:01:18:32.499
  101. 01:26:14.252                             : en:01:26:14.252
  102. 01:32:28.877                             : en:01:32:28.877
RAW Paste Data