Guest User

Untitled

a guest
Jul 8th, 2021
18
Never
Not a member of Pastebin yet? Sign Up, it unlocks many cool features!
  1. General
  2. Unique ID : 259365772310635300681792871855792033305 (0xC32007DEDA606981485E4C93FC678E19)
  3. Complete name : F:\Video\Half.Brothers.2020.BDRip.1080p.seleZen.mkv
  4. Format : Matroska
  5. Format version : Version 4
  6. File size : 10.0 GiB
  7. Duration : 1 h 35 min
  8. Overall bit rate : 15.0 Mb/s
  9. Movie name : Half Brothers 2020 from seleZen
  10. Encoded date : UTC 2021-07-08 16:19:40
  11. Writing application : mkvmerge v55.0.0 ('Waiting For Space') 64-bit
  12. Writing library : libebml v1.4.2 + libmatroska v1.6.4
  13.  
  14. Video
  15. ID : 1
  16. Format : AVC
  17. Format/Info : Advanced Video Codec
  18. Format profile : High@L4.1
  19. Format settings : CABAC / 5 Ref Frames
  20. Format settings, CABAC : Yes
  21. Format settings, Reference : 5 frames
  22. Codec ID : V_MPEG4/ISO/AVC
  23. Duration : 1 h 35 min
  24. Bit rate : 13.9 Mb/s
  25. Width : 1 920 pixels
  26. Height : 804 pixels
  27. Display aspect ratio : 2.40:1
  28. Frame rate mode : Constant
  29. Frame rate : 23.976 (24000/1001) FPS
  30. Color space : YUV
  31. Chroma subsampling : 4:2:0
  32. Bit depth : 8 bits
  33. Scan type : Progressive
  34. Bits/(Pixel*Frame) : 0.376
  35. Stream size : 9.34 GiB (93%)
  36. Title : iFT
  37. Writing library : x264 core 161 r3048+58M ~ Encoded by Mocunaman in Portugal
  38. Encoding settings : cabac=1 / ref=5 / deblock=1:-3:-3 / analyse=0x3:0x113 / me=umh / subme=11 / psy=1 / fade_compensate=0.00 / psy_rd=1.00:0.00 / mixed_ref=1 / me_range=32 / chroma_me=1 / trellis=2 / 8x8dct=1 / cqm=0 / deadzone=21,11 / fast_pskip=0 / chroma_qp_offset=-2 / threads=25 / lookahead_threads=6 / sliced_threads=0 / nr=0 / decimate=0 / interlaced=0 / bluray_compat=0 / constrained_intra=0 / fgo=0 / bframes=10 / b_pyramid=2 / b_adapt=2 / b_bias=0 / direct=3 / weightb=1 / open_gop=0 / weightp=2 / keyint=250 / keyint_min=23 / scenecut=40 / intra_refresh=0 / rc_lookahead=60 / rc=crf / mbtree=0 / crf=16.5000 / qcomp=0.60 / qpmin=0:0:0 / qpmax=69:69:69 / qpstep=4 / vbv_maxrate=62500 / vbv_bufsize=78125 / crf_max=0.0 / nal_hrd=none / filler=0 / ip_ratio=1.30 / pb_ratio=1.20 / aq=3:0.80 / aq-sensitivity=10.00 / aq-factor=1.00:1.00:1.00 / aq2=0 / aq3=0 / zones=72567,73605,crf=15.8/74469,74853,crf=15.8/90518,99082,crf=15.8/114002,114303,crf=15.8
  39. Language : English
  40. Default : Yes
  41. Forced : No
  42. Color range : Limited
  43. Color primaries : BT.709
  44. Transfer characteristics : BT.709
  45. Matrix coefficients : BT.709
  46.  
  47. Audio #1
  48. ID : 2
  49. Format : AC-3
  50. Format/Info : Audio Coding 3
  51. Commercial name : Dolby Digital
  52. Codec ID : A_AC3
  53. Duration : 1 h 35 min
  54. Bit rate mode : Constant
  55. Bit rate : 384 kb/s
  56. Channel(s) : 6 channels
  57. Channel layout : L R C LFE Ls Rs
  58. Sampling rate : 48.0 kHz
  59. Frame rate : 31.250 FPS (1536 SPF)
  60. Compression mode : Lossy
  61. Stream size : 264 MiB (3%)
  62. Title : iTunes
  63. Language : Russian
  64. Service kind : Complete Main
  65. Default : Yes
  66. Forced : Yes
  67.  
  68. Audio #2
  69. ID : 3
  70. Format : AC-3
  71. Format/Info : Audio Coding 3
  72. Commercial name : Dolby Digital
  73. Codec ID : A_AC3
  74. Duration : 1 h 35 min
  75. Bit rate mode : Constant
  76. Bit rate : 640 kb/s
  77. Channel(s) : 6 channels
  78. Channel layout : L R C LFE Ls Rs
  79. Sampling rate : 48.0 kHz
  80. Frame rate : 31.250 FPS (1536 SPF)
  81. Compression mode : Lossy
  82. Stream size : 439 MiB (4%)
  83. Title : Original
  84. Language : English
  85. Service kind : Complete Main
  86. Default : No
  87. Forced : No
  88.  
  89. Text #1
  90. ID : 4
  91. Format : UTF-8
  92. Codec ID : S_TEXT/UTF8
  93. Codec ID/Info : UTF-8 Plain Text
  94. Duration : 1 h 29 min
  95. Bit rate : 15 b/s
  96. Count of elements : 268
  97. Stream size : 10.3 KiB (0%)
  98. Title : Forced
  99. Language : Russian
  100. Default : Yes
  101. Forced : Yes
  102.  
  103. Text #2
  104. ID : 5
  105. Format : UTF-8
  106. Codec ID : S_TEXT/UTF8
  107. Codec ID/Info : UTF-8 Plain Text
  108. Duration : 1 h 35 min
  109. Bit rate : 99 b/s
  110. Count of elements : 1599
  111. Stream size : 69.6 KiB (0%)
  112. Title : Full
  113. Language : Russian
  114. Default : No
  115. Forced : No
  116.  
  117. Text #3
  118. ID : 6
  119. Format : UTF-8
  120. Codec ID : S_TEXT/UTF8
  121. Codec ID/Info : UTF-8 Plain Text
  122. Duration : 1 h 29 min
  123. Bit rate : 61 b/s
  124. Count of elements : 1208
  125. Stream size : 40.7 KiB (0%)
  126. Title : Full
  127. Language : English
  128. Default : No
  129. Forced : No
  130.  
  131. Text #4
  132. ID : 7
  133. Format : UTF-8
  134. Codec ID : S_TEXT/UTF8
  135. Codec ID/Info : UTF-8 Plain Text
  136. Duration : 1 h 31 min
  137. Bit rate : 67 b/s
  138. Count of elements : 1421
  139. Stream size : 45.5 KiB (0%)
  140. Title : SDH
  141. Language : English
  142. Default : No
  143. Forced : No
  144.  
  145. Menu
  146. 00:00:00.000 : en:Chapter 01
  147. 00:05:47.430 : en:Chapter 02
  148. 00:09:08.548 : en:Chapter 03
  149. 00:13:32.020 : en:Chapter 04
  150. 00:16:08.134 : en:Chapter 05
  151. 00:20:24.098 : en:Chapter 06
  152. 00:24:32.721 : en:Chapter 07
  153. 00:30:16.606 : en:Chapter 08
  154. 00:32:55.056 : en:Chapter 09
  155. 00:40:37.852 : en:Chapter 10
  156. 00:44:17.989 : en:Chapter 11
  157. 00:46:43.843 : en:Chapter 12
  158. 00:53:51.228 : en:Chapter 13
  159. 00:59:59.638 : en:Chapter 14
  160. 01:06:02.625 : en:Chapter 15
  161. 01:10:14.627 : en:Chapter 16
  162. 01:14:45.523 : en:Chapter 17
  163. 01:18:21.155 : en:Chapter 18
  164. 01:25:56.485 : en:Chapter 19
  165. 01:31:21.559 : en:Chapter 20
  166.  
  167.  
RAW Paste Data