SHARE
TWEET

Ingress: The Animation : Season 1 1080p WEB-DL

dirtyharrys May 21st, 2019 82 Never
Not a member of Pastebin yet? Sign Up, it unlocks many cool features!
  1. General
  2. Unique ID                   : 163152650102536815222744620818935616422 (0x7ABE0EB3FC4A3240F72CA91F7D1C93A6)
  3. Complete name               : E:\Ingress:The.Animation.S01\ITA-S01E01.mkv
  4. Format                      : Matroska
  5. Format version              : Version 4
  6. File size                   : 1.40 GiB
  7. Duration                    : 22 min 57 s
  8. Overall bit rate mode       : Variable
  9. Overall bit rate            : 8 761 kb/s
  10. Movie name                  : Ingress: The Animation S01E01 / Ingress: The Animation: Season One
  11. Description                 : Episode 01: "Begin
  12. Encoded date                : UTC 2019-05-16 00:38:00
  13. Writing application         : mkvmerge v30.1.0 ('Forever And More') 32-bit
  14. Writing library             : libebml v1.3.6 + libmatroska v1.4.9
  15. Copyright                   : Movies HDs 2019
  16. ARTIST                      : HarshLearner
  17.  
  18. Video
  19. ID                          : 1
  20. Format                      : AVC
  21. Format/Info                 : Advanced Video Codec
  22. Format profile              : Main@L4
  23. Format settings             : CABAC / 3 Ref Frames
  24. Format settings, CABAC      : Yes
  25. Format settings, ReFrames   : 3 frames
  26. Codec ID                    : V_MPEG4/ISO/AVC
  27. Duration                    : 22 min 56 s
  28. Bit rate mode               : Variable
  29. Bit rate                    : 7 500 kb/s
  30. Maximum bit rate            : 11.2 Mb/s
  31. Width                       : 1 920 pixels
  32. Height                      : 1 080 pixels
  33. Display aspect ratio        : 16:9
  34. Frame rate mode             : Constant
  35. Frame rate                  : 23.976 (24000/1001) FPS
  36. Color space                 : YUV
  37. Chroma subsampling          : 4:2:0
  38. Bit depth                   : 8 bits
  39. Scan type                   : Progressive
  40. Bits/(Pixel*Frame)          : 0.151
  41. Stream size                 : 1.20 GiB (85%)
  42. Title                       : S01E01 - Begin – Danger – Message
  43. Writing library             : x264 core 148 r2715 7e75228
  44. Default                     : Yes
  45. Forced                      : No
  46.  
  47. Audio #1
  48. ID                          : 2
  49. Format                      : E-AC-3
  50. Format/Info                 : Enhanced AC-3
  51. Commercial name             : Dolby Digital Plus
  52. Codec ID                    : A_EAC3
  53. Duration                    : 22 min 57 s
  54. Bit rate mode               : Constant
  55. Bit rate                    : 640 kb/s
  56. Channel(s)                  : 6 channels
  57. Channel layout              : L R C LFE Ls Rs
  58. Sampling rate               : 48.0 kHz
  59. Frame rate                  : 31.250 FPS (1536 SPF)
  60. Compression mode            : Lossy
  61. Stream size                 : 105 MiB (7%)
  62. Language                    : Japanese
  63. Service kind                : Complete Main
  64. Default                     : No
  65. Forced                      : No
  66.  
  67. Audio #2
  68. ID                          : 3
  69. Format                      : E-AC-3
  70. Format/Info                 : Enhanced AC-3
  71. Commercial name             : Dolby Digital Plus
  72. Codec ID                    : A_EAC3
  73. Duration                    : 22 min 57 s
  74. Bit rate mode               : Constant
  75. Bit rate                    : 640 kb/s
  76. Channel(s)                  : 6 channels
  77. Channel layout              : L R C LFE Ls Rs
  78. Sampling rate               : 48.0 kHz
  79. Frame rate                  : 31.250 FPS (1536 SPF)
  80. Compression mode            : Lossy
  81. Stream size                 : 105 MiB (7%)
  82. Language                    : Spanish
  83. Service kind                : Complete Main
  84. Default                     : Yes
  85. Forced                      : Yes
  86.  
  87. Text #1
  88. ID                          : 4
  89. Format                      : UTF-8
  90. Codec ID                    : S_TEXT/UTF8
  91. Codec ID/Info               : UTF-8 Plain Text
  92. Duration                    : 22 min 19 s
  93. Bit rate                    : 66 b/s
  94. Count of elements           : 310
  95. Stream size                 : 10.9 KiB (0%)
  96. Title                       : Japanese SDH
  97. Language                    : Japanese
  98. Default                     : No
  99. Forced                      : No
  100.  
  101. Text #2
  102. ID                          : 5
  103. Format                      : UTF-8
  104. Codec ID                    : S_TEXT/UTF8
  105. Codec ID/Info               : UTF-8 Plain Text
  106. Duration                    : 22 min 48 s
  107. Bit rate                    : 43 b/s
  108. Count of elements           : 236
  109. Stream size                 : 7.33 KiB (0%)
  110. Language                    : Spanish
  111. Default                     : Yes
  112. Forced                      : Yes
  113.  
  114. Text #3
  115. ID                          : 6
  116. Format                      : UTF-8
  117. Codec ID                    : S_TEXT/UTF8
  118. Codec ID/Info               : UTF-8 Plain Text
  119. Duration                    : 22 min 46 s
  120. Bit rate                    : 47 b/s
  121. Count of elements           : 234
  122. Stream size                 : 7.97 KiB (0%)
  123. Language                    : French
  124. Default                     : No
  125. Forced                      : No
  126.  
  127. Text #4
  128. ID                          : 7
  129. Format                      : UTF-8
  130. Codec ID                    : S_TEXT/UTF8
  131. Codec ID/Info               : UTF-8 Plain Text
  132. Duration                    : 22 min 43 s
  133. Bit rate                    : 43 b/s
  134. Count of elements           : 236
  135. Stream size                 : 7.25 KiB (0%)
  136. Title                       : Brazilian Portuguese
  137. Language                    : Portuguese
  138. Default                     : No
  139. Forced                      : No
  140.  
  141. Text #5
  142. ID                          : 8
  143. Format                      : UTF-8
  144. Codec ID                    : S_TEXT/UTF8
  145. Codec ID/Info               : UTF-8 Plain Text
  146. Duration                    : 22 min 48 s
  147. Bit rate                    : 5 b/s
  148. Count of elements           : 28
  149. Stream size                 : 947 Bytes (0%)
  150. Language                    : Spanish
  151. Default                     : No
  152. Forced                      : Yes
  153.  
  154. Text #6
  155. ID                          : 9
  156. Format                      : UTF-8
  157. Codec ID                    : S_TEXT/UTF8
  158. Codec ID/Info               : UTF-8 Plain Text
  159. Duration                    : 15 min 25 s
  160. Bit rate                    : 4 b/s
  161. Count of elements           : 20
  162. Stream size                 : 531 Bytes (0%)
  163. Language                    : French
  164. Default                     : No
  165. Forced                      : Yes
  166.  
  167. Text #7
  168. ID                          : 10
  169. Format                      : UTF-8
  170. Codec ID                    : S_TEXT/UTF8
  171. Codec ID/Info               : UTF-8 Plain Text
  172. Duration                    : 15 min 21 s
  173. Bit rate                    : 4 b/s
  174. Count of elements           : 22
  175. Stream size                 : 511 Bytes (0%)
  176. Language                    : Portuguese
  177. Default                     : No
  178. Forced                      : Yes
RAW Paste Data
We use cookies for various purposes including analytics. By continuing to use Pastebin, you agree to our use of cookies as described in the Cookies Policy. OK, I Understand
 
Top