SHARE
TWEET

Untitled

a guest May 24th, 2020 8 Never
Not a member of Pastebin yet? Sign Up, it unlocks many cool features!
  1. ffmpeg version 4.2.2-Matrix-Alpha1-16-g2773f53bb5-Kodi Copyright (c) 2000-2019 the FFmpeg developers
  2.   built with gcc 9.3.0 (GCC)
  3.   configuration: --enable-libdrm --enable-v4l2-request --enable-libudev --enable-static --disable-shared
  4.   libavutil      56. 31.100 / 56. 31.100
  5.   libavcodec     58. 54.100 / 58. 54.100
  6.   libavformat    58. 29.100 / 58. 29.100
  7.   libavdevice    58.  8.100 / 58.  8.100
  8.   libavfilter     7. 57.100 /  7. 57.100
  9.   libswscale      5.  5.100 /  5.  5.100
  10.   libswresample   3.  5.100 /  3.  5.100
  11. Splitting the commandline.
  12. Reading option '-loglevel' ... matched as option 'loglevel' (set logging level) with argument 'debug'.
  13. Reading option '-hwaccel' ... matched as option 'hwaccel' (use HW accelerated decoding) with argument 'drm'.
  14. Reading option '-i' ... matched as input url with argument '/home/ruben/satahome/video/Jellyfish_1080_10s_30MB.mp4'.
  15. Reading option '-pix_fmt' ... matched as option 'pix_fmt' (set pixel format) with argument 'bgra'.
  16. Reading option '-f' ... matched as option 'f' (force format) with argument 'fbdev'.
  17. Reading option '/dev/fb0' ... matched as output url.
  18. Finished splitting the commandline.
  19. Parsing a group of options: global .
  20. Applying option loglevel (set logging level) with argument debug.
  21. Successfully parsed a group of options.
  22. Parsing a group of options: input url /home/ruben/satahome/video/Jellyfish_1080_10s_30MB.mp4.
  23. Applying option hwaccel (use HW accelerated decoding) with argument drm.
  24. Successfully parsed a group of options.
  25. Opening an input file: /home/ruben/satahome/video/Jellyfish_1080_10s_30MB.mp4.
  26. [NULL @ 0xaaab060ed5e0] Opening '/home/ruben/satahome/video/Jellyfish_1080_10s_30MB.mp4' for reading
  27. [file @ 0xaaab060edf20] Setting default whitelist 'file,crypto'
  28. [mov,mp4,m4a,3gp,3g2,mj2 @ 0xaaab060ed5e0] Format mov,mp4,m4a,3gp,3g2,mj2 probed with size=2048 and score=100
  29. [mov,mp4,m4a,3gp,3g2,mj2 @ 0xaaab060ed5e0] ISO: File Type Major Brand: isom
  30. [mov,mp4,m4a,3gp,3g2,mj2 @ 0xaaab060ed5e0] Unknown dref type 0x206c7275 size 12
  31. [mov,mp4,m4a,3gp,3g2,mj2 @ 0xaaab060ed5e0] Processing st: 0, edit list 0 - media time: 1024, duration: 153600
  32. [mov,mp4,m4a,3gp,3g2,mj2 @ 0xaaab060ed5e0] stts: 0 ctts: 1024, ctts_index: 0, ctts_count: 300
  33. [mov,mp4,m4a,3gp,3g2,mj2 @ 0xaaab060ed5e0] stts: 512 ctts: 2560, ctts_index: 1, ctts_count: 300
  34. [mov,mp4,m4a,3gp,3g2,mj2 @ 0xaaab060ed5e0] stts: 1024 ctts: 1024, ctts_index: 2, ctts_count: 300
  35. [mov,mp4,m4a,3gp,3g2,mj2 @ 0xaaab060ed5e0] stts: 1536 ctts: 0, ctts_index: 3, ctts_count: 300
  36. [mov,mp4,m4a,3gp,3g2,mj2 @ 0xaaab060ed5e0] stts: 2048 ctts: 512, ctts_index: 4, ctts_count: 300
  37. [mov,mp4,m4a,3gp,3g2,mj2 @ 0xaaab060ed5e0] stts: 2560 ctts: 3072, ctts_index: 5, ctts_count: 300
  38. [mov,mp4,m4a,3gp,3g2,mj2 @ 0xaaab060ed5e0] stts: 3072 ctts: 1024, ctts_index: 6, ctts_count: 300
  39. [mov,mp4,m4a,3gp,3g2,mj2 @ 0xaaab060ed5e0] stts: 3584 ctts: 0, ctts_index: 7, ctts_count: 300
  40. [mov,mp4,m4a,3gp,3g2,mj2 @ 0xaaab060ed5e0] stts: 4096 ctts: 512, ctts_index: 8, ctts_count: 300
  41. [mov,mp4,m4a,3gp,3g2,mj2 @ 0xaaab060ed5e0] stts: 4608 ctts: 512, ctts_index: 9, ctts_count: 300
  42. [mov,mp4,m4a,3gp,3g2,mj2 @ 0xaaab060ed5e0] stts: 5120 ctts: 2560, ctts_index: 10, ctts_count: 300
  43. [mov,mp4,m4a,3gp,3g2,mj2 @ 0xaaab060ed5e0] stts: 5632 ctts: 1024, ctts_index: 11, ctts_count: 300
  44. [mov,mp4,m4a,3gp,3g2,mj2 @ 0xaaab060ed5e0] stts: 6144 ctts: 0, ctts_index: 12, ctts_count: 300
  45. [mov,mp4,m4a,3gp,3g2,mj2 @ 0xaaab060ed5e0] stts: 6656 ctts: 512, ctts_index: 13, ctts_count: 300
  46. [mov,mp4,m4a,3gp,3g2,mj2 @ 0xaaab060ed5e0] stts: 7168 ctts: 2560, ctts_index: 14, ctts_count: 300
  47. [mov,mp4,m4a,3gp,3g2,mj2 @ 0xaaab060ed5e0] stts: 7680 ctts: 1024, ctts_index: 15, ctts_count: 300
  48. [mov,mp4,m4a,3gp,3g2,mj2 @ 0xaaab060ed5e0] stts: 8192 ctts: 0, ctts_index: 16, ctts_count: 300
  49. [mov,mp4,m4a,3gp,3g2,mj2 @ 0xaaab060ed5e0] stts: 8704 ctts: 512, ctts_index: 17, ctts_count: 300
  50. [mov,mp4,m4a,3gp,3g2,mj2 @ 0xaaab060ed5e0] stts: 9216 ctts: 2560, ctts_index: 18, ctts_count: 300
  51. [mov,mp4,m4a,3gp,3g2,mj2 @ 0xaaab060ed5e0] stts: 9728 ctts: 1024, ctts_index: 19, ctts_count: 300
  52. [mov,mp4,m4a,3gp,3g2,mj2 @ 0xaaab060ed5e0] stts: 10240 ctts: 0, ctts_index: 20, ctts_count: 300
  53. [mov,mp4,m4a,3gp,3g2,mj2 @ 0xaaab060ed5e0] stts: 10752 ctts: 512, ctts_index: 21, ctts_count: 300
  54. [mov,mp4,m4a,3gp,3g2,mj2 @ 0xaaab060ed5e0] stts: 11264 ctts: 2560, ctts_index: 22, ctts_count: 300
  55. [mov,mp4,m4a,3gp,3g2,mj2 @ 0xaaab060ed5e0] stts: 11776 ctts: 1024, ctts_index: 23, ctts_count: 300
  56. [mov,mp4,m4a,3gp,3g2,mj2 @ 0xaaab060ed5e0] stts: 12288 ctts: 0, ctts_index: 24, ctts_count: 300
  57. [mov,mp4,m4a,3gp,3g2,mj2 @ 0xaaab060ed5e0] stts: 12800 ctts: 512, ctts_index: 25, ctts_count: 300
  58. [mov,mp4,m4a,3gp,3g2,mj2 @ 0xaaab060ed5e0] stts: 13312 ctts: 2560, ctts_index: 26, ctts_count: 300
  59. [mov,mp4,m4a,3gp,3g2,mj2 @ 0xaaab060ed5e0] stts: 13824 ctts: 1024, ctts_index: 27, ctts_count: 300
  60. [mov,mp4,m4a,3gp,3g2,mj2 @ 0xaaab060ed5e0] stts: 14336 ctts: 0, ctts_index: 28, ctts_count: 300
  61. [mov,mp4,m4a,3gp,3g2,mj2 @ 0xaaab060ed5e0] stts: 14848 ctts: 512, ctts_index: 29, ctts_count: 300
  62. [mov,mp4,m4a,3gp,3g2,mj2 @ 0xaaab060ed5e0] stts: 15360 ctts: 2560, ctts_index: 30, ctts_count: 300
  63. [mov,mp4,m4a,3gp,3g2,mj2 @ 0xaaab060ed5e0] stts: 15872 ctts: 1024, ctts_index: 31, ctts_count: 300
  64. [mov,mp4,m4a,3gp,3g2,mj2 @ 0xaaab060ed5e0] stts: 16384 ctts: 0, ctts_index: 32, ctts_count: 300
  65. [mov,mp4,m4a,3gp,3g2,mj2 @ 0xaaab060ed5e0] stts: 16896 ctts: 512, ctts_index: 33, ctts_count: 300
  66. [mov,mp4,m4a,3gp,3g2,mj2 @ 0xaaab060ed5e0] stts: 17408 ctts: 2560, ctts_index: 34, ctts_count: 300
  67. [mov,mp4,m4a,3gp,3g2,mj2 @ 0xaaab060ed5e0] stts: 17920 ctts: 1024, ctts_index: 35, ctts_count: 300
  68. [mov,mp4,m4a,3gp,3g2,mj2 @ 0xaaab060ed5e0] stts: 18432 ctts: 0, ctts_index: 36, ctts_count: 300
  69. [mov,mp4,m4a,3gp,3g2,mj2 @ 0xaaab060ed5e0] stts: 18944 ctts: 512, ctts_index: 37, ctts_count: 300
  70. [mov,mp4,m4a,3gp,3g2,mj2 @ 0xaaab060ed5e0] stts: 19456 ctts: 1024, ctts_index: 38, ctts_count: 300
  71. [mov,mp4,m4a,3gp,3g2,mj2 @ 0xaaab060ed5e0] stts: 19968 ctts: 2560, ctts_index: 39, ctts_count: 300
  72. [mov,mp4,m4a,3gp,3g2,mj2 @ 0xaaab060ed5e0] stts: 20480 ctts: 1024, ctts_index: 40, ctts_count: 300
  73. [mov,mp4,m4a,3gp,3g2,mj2 @ 0xaaab060ed5e0] stts: 20992 ctts: 0, ctts_index: 41, ctts_count: 300
  74. [mov,mp4,m4a,3gp,3g2,mj2 @ 0xaaab060ed5e0] stts: 21504 ctts: 512, ctts_index: 42, ctts_count: 300
  75. [mov,mp4,m4a,3gp,3g2,mj2 @ 0xaaab060ed5e0] stts: 22016 ctts: 3072, ctts_index: 43, ctts_count: 300
  76. [mov,mp4,m4a,3gp,3g2,mj2 @ 0xaaab060ed5e0] stts: 22528 ctts: 1024, ctts_index: 44, ctts_count: 300
  77. [mov,mp4,m4a,3gp,3g2,mj2 @ 0xaaab060ed5e0] stts: 23040 ctts: 0, ctts_index: 45, ctts_count: 300
  78. [mov,mp4,m4a,3gp,3g2,mj2 @ 0xaaab060ed5e0] stts: 23552 ctts: 512, ctts_index: 46, ctts_count: 300
  79. [mov,mp4,m4a,3gp,3g2,mj2 @ 0xaaab060ed5e0] stts: 24064 ctts: 512, ctts_index: 47, ctts_count: 300
  80. [mov,mp4,m4a,3gp,3g2,mj2 @ 0xaaab060ed5e0] stts: 24576 ctts: 2560, ctts_index: 48, ctts_count: 300
  81. [mov,mp4,m4a,3gp,3g2,mj2 @ 0xaaab060ed5e0] stts: 25088 ctts: 1024, ctts_index: 49, ctts_count: 300
  82. [mov,mp4,m4a,3gp,3g2,mj2 @ 0xaaab060ed5e0] stts: 25600 ctts: 0, ctts_index: 50, ctts_count: 300
  83. [mov,mp4,m4a,3gp,3g2,mj2 @ 0xaaab060ed5e0] stts: 26112 ctts: 512, ctts_index: 51, ctts_count: 300
  84. [mov,mp4,m4a,3gp,3g2,mj2 @ 0xaaab060ed5e0] stts: 26624 ctts: 3072, ctts_index: 52, ctts_count: 300
  85. [mov,mp4,m4a,3gp,3g2,mj2 @ 0xaaab060ed5e0] stts: 27136 ctts: 1024, ctts_index: 53, ctts_count: 300
  86. [mov,mp4,m4a,3gp,3g2,mj2 @ 0xaaab060ed5e0] stts: 27648 ctts: 0, ctts_index: 54, ctts_count: 300
  87. [mov,mp4,m4a,3gp,3g2,mj2 @ 0xaaab060ed5e0] stts: 28160 ctts: 512, ctts_index: 55, ctts_count: 300
  88. [mov,mp4,m4a,3gp,3g2,mj2 @ 0xaaab060ed5e0] stts: 28672 ctts: 512, ctts_index: 56, ctts_count: 300
  89. [mov,mp4,m4a,3gp,3g2,mj2 @ 0xaaab060ed5e0] stts: 29184 ctts: 2560, ctts_index: 57, ctts_count: 300
  90. [mov,mp4,m4a,3gp,3g2,mj2 @ 0xaaab060ed5e0] stts: 29696 ctts: 1024, ctts_index: 58, ctts_count: 300
  91. [mov,mp4,m4a,3gp,3g2,mj2 @ 0xaaab060ed5e0] stts: 30208 ctts: 0, ctts_index: 59, ctts_count: 300
  92. [mov,mp4,m4a,3gp,3g2,mj2 @ 0xaaab060ed5e0] stts: 30720 ctts: 512, ctts_index: 60, ctts_count: 300
  93. [mov,mp4,m4a,3gp,3g2,mj2 @ 0xaaab060ed5e0] stts: 31232 ctts: 2560, ctts_index: 61, ctts_count: 300
  94. [mov,mp4,m4a,3gp,3g2,mj2 @ 0xaaab060ed5e0] stts: 31744 ctts: 1024, ctts_index: 62, ctts_count: 300
  95. [mov,mp4,m4a,3gp,3g2,mj2 @ 0xaaab060ed5e0] stts: 32256 ctts: 0, ctts_index: 63, ctts_count: 300
  96. [mov,mp4,m4a,3gp,3g2,mj2 @ 0xaaab060ed5e0] stts: 32768 ctts: 512, ctts_index: 64, ctts_count: 300
  97. [mov,mp4,m4a,3gp,3g2,mj2 @ 0xaaab060ed5e0] stts: 33280 ctts: 2560, ctts_index: 65, ctts_count: 300
  98. [mov,mp4,m4a,3gp,3g2,mj2 @ 0xaaab060ed5e0] stts: 33792 ctts: 1024, ctts_index: 66, ctts_count: 300
  99. [mov,mp4,m4a,3gp,3g2,mj2 @ 0xaaab060ed5e0] stts: 34304 ctts: 0, ctts_index: 67, ctts_count: 300
  100. [mov,mp4,m4a,3gp,3g2,mj2 @ 0xaaab060ed5e0] stts: 34816 ctts: 512, ctts_index: 68, ctts_count: 300
  101. [mov,mp4,m4a,3gp,3g2,mj2 @ 0xaaab060ed5e0] stts: 35328 ctts: 2560, ctts_index: 69, ctts_count: 300
  102. [mov,mp4,m4a,3gp,3g2,mj2 @ 0xaaab060ed5e0] stts: 35840 ctts: 1024, ctts_index: 70, ctts_count: 300
  103. [mov,mp4,m4a,3gp,3g2,mj2 @ 0xaaab060ed5e0] stts: 36352 ctts: 0, ctts_index: 71, ctts_count: 300
  104. [mov,mp4,m4a,3gp,3g2,mj2 @ 0xaaab060ed5e0] stts: 36864 ctts: 512, ctts_index: 72, ctts_count: 300
  105. [mov,mp4,m4a,3gp,3g2,mj2 @ 0xaaab060ed5e0] stts: 37376 ctts: 2560, ctts_index: 73, ctts_count: 300
  106. [mov,mp4,m4a,3gp,3g2,mj2 @ 0xaaab060ed5e0] stts: 37888 ctts: 1024, ctts_index: 74, ctts_count: 300
  107. [mov,mp4,m4a,3gp,3g2,mj2 @ 0xaaab060ed5e0] stts: 38400 ctts: 0, ctts_index: 75, ctts_count: 300
  108. [mov,mp4,m4a,3gp,3g2,mj2 @ 0xaaab060ed5e0] stts: 38912 ctts: 512, ctts_index: 76, ctts_count: 300
  109. [mov,mp4,m4a,3gp,3g2,mj2 @ 0xaaab060ed5e0] stts: 39424 ctts: 2560, ctts_index: 77, ctts_count: 300
  110. [mov,mp4,m4a,3gp,3g2,mj2 @ 0xaaab060ed5e0] stts: 39936 ctts: 1024, ctts_index: 78, ctts_count: 300
  111. [mov,mp4,m4a,3gp,3g2,mj2 @ 0xaaab060ed5e0] stts: 40448 ctts: 0, ctts_index: 79, ctts_count: 300
  112. [mov,mp4,m4a,3gp,3g2,mj2 @ 0xaaab060ed5e0] stts: 40960 ctts: 512, ctts_index: 80, ctts_count: 300
  113. [mov,mp4,m4a,3gp,3g2,mj2 @ 0xaaab060ed5e0] stts: 41472 ctts: 2560, ctts_index: 81, ctts_count: 300
  114. [mov,mp4,m4a,3gp,3g2,mj2 @ 0xaaab060ed5e0] stts: 41984 ctts: 1024, ctts_index: 82, ctts_count: 300
  115. [mov,mp4,m4a,3gp,3g2,mj2 @ 0xaaab060ed5e0] stts: 42496 ctts: 0, ctts_index: 83, ctts_count: 300
  116. [mov,mp4,m4a,3gp,3g2,mj2 @ 0xaaab060ed5e0] stts: 43008 ctts: 512, ctts_index: 84, ctts_count: 300
  117. [mov,mp4,m4a,3gp,3g2,mj2 @ 0xaaab060ed5e0] stts: 43520 ctts: 2560, ctts_index: 85, ctts_count: 300
  118. [mov,mp4,m4a,3gp,3g2,mj2 @ 0xaaab060ed5e0] stts: 44032 ctts: 1024, ctts_index: 86, ctts_count: 300
  119. [mov,mp4,m4a,3gp,3g2,mj2 @ 0xaaab060ed5e0] stts: 44544 ctts: 0, ctts_index: 87, ctts_count: 300
  120. [mov,mp4,m4a,3gp,3g2,mj2 @ 0xaaab060ed5e0] stts: 45056 ctts: 512, ctts_index: 88, ctts_count: 300
  121. [mov,mp4,m4a,3gp,3g2,mj2 @ 0xaaab060ed5e0] stts: 45568 ctts: 2560, ctts_index: 89, ctts_count: 300
  122. [mov,mp4,m4a,3gp,3g2,mj2 @ 0xaaab060ed5e0] stts: 46080 ctts: 1024, ctts_index: 90, ctts_count: 300
  123. [mov,mp4,m4a,3gp,3g2,mj2 @ 0xaaab060ed5e0] stts: 46592 ctts: 0, ctts_index: 91, ctts_count: 300
  124. [mov,mp4,m4a,3gp,3g2,mj2 @ 0xaaab060ed5e0] stts: 47104 ctts: 512, ctts_index: 92, ctts_count: 300
  125. [mov,mp4,m4a,3gp,3g2,mj2 @ 0xaaab060ed5e0] stts: 47616 ctts: 2560, ctts_index: 93, ctts_count: 300
  126. [mov,mp4,m4a,3gp,3g2,mj2 @ 0xaaab060ed5e0] stts: 48128 ctts: 1024, ctts_index: 94, ctts_count: 300
  127. [mov,mp4,m4a,3gp,3g2,mj2 @ 0xaaab060ed5e0] stts: 48640 ctts: 0, ctts_index: 95, ctts_count: 300
  128. [mov,mp4,m4a,3gp,3g2,mj2 @ 0xaaab060ed5e0] stts: 49152 ctts: 512, ctts_index: 96, ctts_count: 300
  129. [mov,mp4,m4a,3gp,3g2,mj2 @ 0xaaab060ed5e0] stts: 49664 ctts: 2560, ctts_index: 97, ctts_count: 300
  130. [mov,mp4,m4a,3gp,3g2,mj2 @ 0xaaab060ed5e0] stts: 50176 ctts: 1024, ctts_index: 98, ctts_count: 300
  131. [mov,mp4,m4a,3gp,3g2,mj2 @ 0xaaab060ed5e0] stts: 50688 ctts: 0, ctts_index: 99, ctts_count: 300
  132. [mov,mp4,m4a,3gp,3g2,mj2 @ 0xaaab060ed5e0] stts: 51200 ctts: 512, ctts_index: 100, ctts_count: 300
  133. [mov,mp4,m4a,3gp,3g2,mj2 @ 0xaaab060ed5e0] stts: 51712 ctts: 2560, ctts_index: 101, ctts_count: 300
  134. [mov,mp4,m4a,3gp,3g2,mj2 @ 0xaaab060ed5e0] stts: 52224 ctts: 1024, ctts_index: 102, ctts_count: 300
  135. [mov,mp4,m4a,3gp,3g2,mj2 @ 0xaaab060ed5e0] stts: 52736 ctts: 0, ctts_index: 103, ctts_count: 300
  136. [mov,mp4,m4a,3gp,3g2,mj2 @ 0xaaab060ed5e0] stts: 53248 ctts: 512, ctts_index: 104, ctts_count: 300
  137. [mov,mp4,m4a,3gp,3g2,mj2 @ 0xaaab060ed5e0] stts: 53760 ctts: 2560, ctts_index: 105, ctts_count: 300
  138. [mov,mp4,m4a,3gp,3g2,mj2 @ 0xaaab060ed5e0] stts: 54272 ctts: 1024, ctts_index: 106, ctts_count: 300
  139. [mov,mp4,m4a,3gp,3g2,mj2 @ 0xaaab060ed5e0] stts: 54784 ctts: 0, ctts_index: 107, ctts_count: 300
  140. [mov,mp4,m4a,3gp,3g2,mj2 @ 0xaaab060ed5e0] stts: 55296 ctts: 512, ctts_index: 108, ctts_count: 300
  141. [mov,mp4,m4a,3gp,3g2,mj2 @ 0xaaab060ed5e0] stts: 55808 ctts: 2560, ctts_index: 109, ctts_count: 300
  142. [mov,mp4,m4a,3gp,3g2,mj2 @ 0xaaab060ed5e0] stts: 56320 ctts: 1024, ctts_index: 110, ctts_count: 300
  143. [mov,mp4,m4a,3gp,3g2,mj2 @ 0xaaab060ed5e0] stts: 56832 ctts: 0, ctts_index: 111, ctts_count: 300
  144. [mov,mp4,m4a,3gp,3g2,mj2 @ 0xaaab060ed5e0] stts: 57344 ctts: 512, ctts_index: 112, ctts_count: 300
  145. [mov,mp4,m4a,3gp,3g2,mj2 @ 0xaaab060ed5e0] stts: 57856 ctts: 2560, ctts_index: 113, ctts_count: 300
  146. [mov,mp4,m4a,3gp,3g2,mj2 @ 0xaaab060ed5e0] stts: 58368 ctts: 1024, ctts_index: 114, ctts_count: 300
  147. [mov,mp4,m4a,3gp,3g2,mj2 @ 0xaaab060ed5e0] stts: 58880 ctts: 0, ctts_index: 115, ctts_count: 300
  148. [mov,mp4,m4a,3gp,3g2,mj2 @ 0xaaab060ed5e0] stts: 59392 ctts: 512, ctts_index: 116, ctts_count: 300
  149. [mov,mp4,m4a,3gp,3g2,mj2 @ 0xaaab060ed5e0] stts: 59904 ctts: 2560, ctts_index: 117, ctts_count: 300
  150. [mov,mp4,m4a,3gp,3g2,mj2 @ 0xaaab060ed5e0] stts: 60416 ctts: 1024, ctts_index: 118, ctts_count: 300
  151. [mov,mp4,m4a,3gp,3g2,mj2 @ 0xaaab060ed5e0] stts: 60928 ctts: 0, ctts_index: 119, ctts_count: 300
  152. [mov,mp4,m4a,3gp,3g2,mj2 @ 0xaaab060ed5e0] stts: 61440 ctts: 512, ctts_index: 120, ctts_count: 300
  153. [mov,mp4,m4a,3gp,3g2,mj2 @ 0xaaab060ed5e0] stts: 61952 ctts: 2560, ctts_index: 121, ctts_count: 300
  154. [mov,mp4,m4a,3gp,3g2,mj2 @ 0xaaab060ed5e0] stts: 62464 ctts: 1024, ctts_index: 122, ctts_count: 300
  155. [mov,mp4,m4a,3gp,3g2,mj2 @ 0xaaab060ed5e0] stts: 62976 ctts: 0, ctts_index: 123, ctts_count: 300
  156. [mov,mp4,m4a,3gp,3g2,mj2 @ 0xaaab060ed5e0] stts: 63488 ctts: 512, ctts_index: 124, ctts_count: 300
  157. [mov,mp4,m4a,3gp,3g2,mj2 @ 0xaaab060ed5e0] stts: 64000 ctts: 2560, ctts_index: 125, ctts_count: 300
  158. [mov,mp4,m4a,3gp,3g2,mj2 @ 0xaaab060ed5e0] stts: 64512 ctts: 1024, ctts_index: 126, ctts_count: 300
  159. [mov,mp4,m4a,3gp,3g2,mj2 @ 0xaaab060ed5e0] stts: 65024 ctts: 0, ctts_index: 127, ctts_count: 300
  160. [mov,mp4,m4a,3gp,3g2,mj2 @ 0xaaab060ed5e0] stts: 65536 ctts: 512, ctts_index: 128, ctts_count: 300
  161. [mov,mp4,m4a,3gp,3g2,mj2 @ 0xaaab060ed5e0] stts: 66048 ctts: 2560, ctts_index: 129, ctts_count: 300
  162. [mov,mp4,m4a,3gp,3g2,mj2 @ 0xaaab060ed5e0] stts: 66560 ctts: 1024, ctts_index: 130, ctts_count: 300
  163. [mov,mp4,m4a,3gp,3g2,mj2 @ 0xaaab060ed5e0] stts: 67072 ctts: 0, ctts_index: 131, ctts_count: 300
  164. [mov,mp4,m4a,3gp,3g2,mj2 @ 0xaaab060ed5e0] stts: 67584 ctts: 512, ctts_index: 132, ctts_count: 300
  165. [mov,mp4,m4a,3gp,3g2,mj2 @ 0xaaab060ed5e0] stts: 68096 ctts: 2560, ctts_index: 133, ctts_count: 300
  166. [mov,mp4,m4a,3gp,3g2,mj2 @ 0xaaab060ed5e0] stts: 68608 ctts: 1024, ctts_index: 134, ctts_count: 300
  167. [mov,mp4,m4a,3gp,3g2,mj2 @ 0xaaab060ed5e0] stts: 69120 ctts: 0, ctts_index: 135, ctts_count: 300
  168. [mov,mp4,m4a,3gp,3g2,mj2 @ 0xaaab060ed5e0] stts: 69632 ctts: 512, ctts_index: 136, ctts_count: 300
  169. [mov,mp4,m4a,3gp,3g2,mj2 @ 0xaaab060ed5e0] stts: 70144 ctts: 2560, ctts_index: 137, ctts_count: 300
  170. [mov,mp4,m4a,3gp,3g2,mj2 @ 0xaaab060ed5e0] stts: 70656 ctts: 1024, ctts_index: 138, ctts_count: 300
  171. [mov,mp4,m4a,3gp,3g2,mj2 @ 0xaaab060ed5e0] stts: 71168 ctts: 0, ctts_index: 139, ctts_count: 300
  172. [mov,mp4,m4a,3gp,3g2,mj2 @ 0xaaab060ed5e0] stts: 71680 ctts: 512, ctts_index: 140, ctts_count: 300
  173. [mov,mp4,m4a,3gp,3g2,mj2 @ 0xaaab060ed5e0] stts: 72192 ctts: 2560, ctts_index: 141, ctts_count: 300
  174. [mov,mp4,m4a,3gp,3g2,mj2 @ 0xaaab060ed5e0] stts: 72704 ctts: 1024, ctts_index: 142, ctts_count: 300
  175. [mov,mp4,m4a,3gp,3g2,mj2 @ 0xaaab060ed5e0] stts: 73216 ctts: 0, ctts_index: 143, ctts_count: 300
  176. [mov,mp4,m4a,3gp,3g2,mj2 @ 0xaaab060ed5e0] stts: 73728 ctts: 512, ctts_index: 144, ctts_count: 300
  177. [mov,mp4,m4a,3gp,3g2,mj2 @ 0xaaab060ed5e0] stts: 74240 ctts: 2560, ctts_index: 145, ctts_count: 300
  178. [mov,mp4,m4a,3gp,3g2,mj2 @ 0xaaab060ed5e0] stts: 74752 ctts: 1024, ctts_index: 146, ctts_count: 300
  179. [mov,mp4,m4a,3gp,3g2,mj2 @ 0xaaab060ed5e0] stts: 75264 ctts: 0, ctts_index: 147, ctts_count: 300
  180. [mov,mp4,m4a,3gp,3g2,mj2 @ 0xaaab060ed5e0] stts: 75776 ctts: 512, ctts_index: 148, ctts_count: 300
  181. [mov,mp4,m4a,3gp,3g2,mj2 @ 0xaaab060ed5e0] stts: 76288 ctts: 2560, ctts_index: 149, ctts_count: 300
  182. [mov,mp4,m4a,3gp,3g2,mj2 @ 0xaaab060ed5e0] stts: 76800 ctts: 1024, ctts_index: 150, ctts_count: 300
  183. [mov,mp4,m4a,3gp,3g2,mj2 @ 0xaaab060ed5e0] stts: 77312 ctts: 0, ctts_index: 151, ctts_count: 300
  184. [mov,mp4,m4a,3gp,3g2,mj2 @ 0xaaab060ed5e0] stts: 77824 ctts: 512, ctts_index: 152, ctts_count: 300
  185. [mov,mp4,m4a,3gp,3g2,mj2 @ 0xaaab060ed5e0] stts: 78336 ctts: 2560, ctts_index: 153, ctts_count: 300
  186. [mov,mp4,m4a,3gp,3g2,mj2 @ 0xaaab060ed5e0] stts: 78848 ctts: 1024, ctts_index: 154, ctts_count: 300
  187. [mov,mp4,m4a,3gp,3g2,mj2 @ 0xaaab060ed5e0] stts: 79360 ctts: 0, ctts_index: 155, ctts_count: 300
  188. [mov,mp4,m4a,3gp,3g2,mj2 @ 0xaaab060ed5e0] stts: 79872 ctts: 512, ctts_index: 156, ctts_count: 300
  189. [mov,mp4,m4a,3gp,3g2,mj2 @ 0xaaab060ed5e0] stts: 80384 ctts: 2560, ctts_index: 157, ctts_count: 300
  190. [mov,mp4,m4a,3gp,3g2,mj2 @ 0xaaab060ed5e0] stts: 80896 ctts: 1024, ctts_index: 158, ctts_count: 300
  191. [mov,mp4,m4a,3gp,3g2,mj2 @ 0xaaab060ed5e0] stts: 81408 ctts: 0, ctts_index: 159, ctts_count: 300
  192. [mov,mp4,m4a,3gp,3g2,mj2 @ 0xaaab060ed5e0] stts: 81920 ctts: 512, ctts_index: 160, ctts_count: 300
  193. [mov,mp4,m4a,3gp,3g2,mj2 @ 0xaaab060ed5e0] stts: 82432 ctts: 2560, ctts_index: 161, ctts_count: 300
  194. [mov,mp4,m4a,3gp,3g2,mj2 @ 0xaaab060ed5e0] stts: 82944 ctts: 1024, ctts_index: 162, ctts_count: 300
  195. [mov,mp4,m4a,3gp,3g2,mj2 @ 0xaaab060ed5e0] stts: 83456 ctts: 0, ctts_index: 163, ctts_count: 300
  196. [mov,mp4,m4a,3gp,3g2,mj2 @ 0xaaab060ed5e0] stts: 83968 ctts: 512, ctts_index: 164, ctts_count: 300
  197. [mov,mp4,m4a,3gp,3g2,mj2 @ 0xaaab060ed5e0] stts: 84480 ctts: 2560, ctts_index: 165, ctts_count: 300
  198. [mov,mp4,m4a,3gp,3g2,mj2 @ 0xaaab060ed5e0] stts: 84992 ctts: 1024, ctts_index: 166, ctts_count: 300
  199. [mov,mp4,m4a,3gp,3g2,mj2 @ 0xaaab060ed5e0] stts: 85504 ctts: 0, ctts_index: 167, ctts_count: 300
  200. [mov,mp4,m4a,3gp,3g2,mj2 @ 0xaaab060ed5e0] stts: 86016 ctts: 512, ctts_index: 168, ctts_count: 300
  201. [mov,mp4,m4a,3gp,3g2,mj2 @ 0xaaab060ed5e0] stts: 86528 ctts: 2560, ctts_index: 169, ctts_count: 300
  202. [mov,mp4,m4a,3gp,3g2,mj2 @ 0xaaab060ed5e0] stts: 87040 ctts: 1024, ctts_index: 170, ctts_count: 300
  203. [mov,mp4,m4a,3gp,3g2,mj2 @ 0xaaab060ed5e0] stts: 87552 ctts: 0, ctts_index: 171, ctts_count: 300
  204. [mov,mp4,m4a,3gp,3g2,mj2 @ 0xaaab060ed5e0] stts: 88064 ctts: 512, ctts_index: 172, ctts_count: 300
  205. [mov,mp4,m4a,3gp,3g2,mj2 @ 0xaaab060ed5e0] stts: 88576 ctts: 2560, ctts_index: 173, ctts_count: 300
  206. [mov,mp4,m4a,3gp,3g2,mj2 @ 0xaaab060ed5e0] stts: 89088 ctts: 1024, ctts_index: 174, ctts_count: 300
  207. [mov,mp4,m4a,3gp,3g2,mj2 @ 0xaaab060ed5e0] stts: 89600 ctts: 0, ctts_index: 175, ctts_count: 300
  208. [mov,mp4,m4a,3gp,3g2,mj2 @ 0xaaab060ed5e0] stts: 90112 ctts: 512, ctts_index: 176, ctts_count: 300
  209. [mov,mp4,m4a,3gp,3g2,mj2 @ 0xaaab060ed5e0] stts: 90624 ctts: 2560, ctts_index: 177, ctts_count: 300
  210. [mov,mp4,m4a,3gp,3g2,mj2 @ 0xaaab060ed5e0] stts: 91136 ctts: 1024, ctts_index: 178, ctts_count: 300
  211. [mov,mp4,m4a,3gp,3g2,mj2 @ 0xaaab060ed5e0] stts: 91648 ctts: 0, ctts_index: 179, ctts_count: 300
  212. [mov,mp4,m4a,3gp,3g2,mj2 @ 0xaaab060ed5e0] stts: 92160 ctts: 512, ctts_index: 180, ctts_count: 300
  213. [mov,mp4,m4a,3gp,3g2,mj2 @ 0xaaab060ed5e0] stts: 92672 ctts: 2560, ctts_index: 181, ctts_count: 300
  214. [mov,mp4,m4a,3gp,3g2,mj2 @ 0xaaab060ed5e0] stts: 93184 ctts: 1024, ctts_index: 182, ctts_count: 300
  215. [mov,mp4,m4a,3gp,3g2,mj2 @ 0xaaab060ed5e0] stts: 93696 ctts: 0, ctts_index: 183, ctts_count: 300
  216. [mov,mp4,m4a,3gp,3g2,mj2 @ 0xaaab060ed5e0] stts: 94208 ctts: 512, ctts_index: 184, ctts_count: 300
  217. [mov,mp4,m4a,3gp,3g2,mj2 @ 0xaaab060ed5e0] stts: 94720 ctts: 2560, ctts_index: 185, ctts_count: 300
  218. [mov,mp4,m4a,3gp,3g2,mj2 @ 0xaaab060ed5e0] stts: 95232 ctts: 1024, ctts_index: 186, ctts_count: 300
  219. [mov,mp4,m4a,3gp,3g2,mj2 @ 0xaaab060ed5e0] stts: 95744 ctts: 0, ctts_index: 187, ctts_count: 300
  220. [mov,mp4,m4a,3gp,3g2,mj2 @ 0xaaab060ed5e0] stts: 96256 ctts: 512, ctts_index: 188, ctts_count: 300
  221. [mov,mp4,m4a,3gp,3g2,mj2 @ 0xaaab060ed5e0] stts: 96768 ctts: 2560, ctts_index: 189, ctts_count: 300
  222. [mov,mp4,m4a,3gp,3g2,mj2 @ 0xaaab060ed5e0] stts: 97280 ctts: 1024, ctts_index: 190, ctts_count: 300
  223. [mov,mp4,m4a,3gp,3g2,mj2 @ 0xaaab060ed5e0] stts: 97792 ctts: 0, ctts_index: 191, ctts_count: 300
  224. [mov,mp4,m4a,3gp,3g2,mj2 @ 0xaaab060ed5e0] stts: 98304 ctts: 512, ctts_index: 192, ctts_count: 300
  225. [mov,mp4,m4a,3gp,3g2,mj2 @ 0xaaab060ed5e0] stts: 98816 ctts: 2560, ctts_index: 193, ctts_count: 300
  226. [mov,mp4,m4a,3gp,3g2,mj2 @ 0xaaab060ed5e0] stts: 99328 ctts: 1024, ctts_index: 194, ctts_count: 300
  227. [mov,mp4,m4a,3gp,3g2,mj2 @ 0xaaab060ed5e0] stts: 99840 ctts: 0, ctts_index: 195, ctts_count: 300
  228. [mov,mp4,m4a,3gp,3g2,mj2 @ 0xaaab060ed5e0] stts: 100352 ctts: 512, ctts_index: 196, ctts_count: 300
  229. [mov,mp4,m4a,3gp,3g2,mj2 @ 0xaaab060ed5e0] stts: 100864 ctts: 2560, ctts_index: 197, ctts_count: 300
  230. [mov,mp4,m4a,3gp,3g2,mj2 @ 0xaaab060ed5e0] stts: 101376 ctts: 1024, ctts_index: 198, ctts_count: 300
  231. [mov,mp4,m4a,3gp,3g2,mj2 @ 0xaaab060ed5e0] stts: 101888 ctts: 0, ctts_index: 199, ctts_count: 300
  232. [mov,mp4,m4a,3gp,3g2,mj2 @ 0xaaab060ed5e0] stts: 102400 ctts: 512, ctts_index: 200, ctts_count: 300
  233. [mov,mp4,m4a,3gp,3g2,mj2 @ 0xaaab060ed5e0] stts: 102912 ctts: 2560, ctts_index: 201, ctts_count: 300
  234. [mov,mp4,m4a,3gp,3g2,mj2 @ 0xaaab060ed5e0] stts: 103424 ctts: 1024, ctts_index: 202, ctts_count: 300
  235. [mov,mp4,m4a,3gp,3g2,mj2 @ 0xaaab060ed5e0] stts: 103936 ctts: 0, ctts_index: 203, ctts_count: 300
  236. [mov,mp4,m4a,3gp,3g2,mj2 @ 0xaaab060ed5e0] stts: 104448 ctts: 512, ctts_index: 204, ctts_count: 300
  237. [mov,mp4,m4a,3gp,3g2,mj2 @ 0xaaab060ed5e0] stts: 104960 ctts: 2560, ctts_index: 205, ctts_count: 300
  238. [mov,mp4,m4a,3gp,3g2,mj2 @ 0xaaab060ed5e0] stts: 105472 ctts: 1024, ctts_index: 206, ctts_count: 300
  239. [mov,mp4,m4a,3gp,3g2,mj2 @ 0xaaab060ed5e0] stts: 105984 ctts: 0, ctts_index: 207, ctts_count: 300
  240. [mov,mp4,m4a,3gp,3g2,mj2 @ 0xaaab060ed5e0] stts: 106496 ctts: 512, ctts_index: 208, ctts_count: 300
  241. [mov,mp4,m4a,3gp,3g2,mj2 @ 0xaaab060ed5e0] stts: 107008 ctts: 2560, ctts_index: 209, ctts_count: 300
  242. [mov,mp4,m4a,3gp,3g2,mj2 @ 0xaaab060ed5e0] stts: 107520 ctts: 1024, ctts_index: 210, ctts_count: 300
  243. [mov,mp4,m4a,3gp,3g2,mj2 @ 0xaaab060ed5e0] stts: 108032 ctts: 0, ctts_index: 211, ctts_count: 300
  244. [mov,mp4,m4a,3gp,3g2,mj2 @ 0xaaab060ed5e0] stts: 108544 ctts: 512, ctts_index: 212, ctts_count: 300
  245. [mov,mp4,m4a,3gp,3g2,mj2 @ 0xaaab060ed5e0] stts: 109056 ctts: 2560, ctts_index: 213, ctts_count: 300
  246. [mov,mp4,m4a,3gp,3g2,mj2 @ 0xaaab060ed5e0] stts: 109568 ctts: 1024, ctts_index: 214, ctts_count: 300
  247. [mov,mp4,m4a,3gp,3g2,mj2 @ 0xaaab060ed5e0] stts: 110080 ctts: 0, ctts_index: 215, ctts_count: 300
  248. [mov,mp4,m4a,3gp,3g2,mj2 @ 0xaaab060ed5e0] stts: 110592 ctts: 512, ctts_index: 216, ctts_count: 300
  249. [mov,mp4,m4a,3gp,3g2,mj2 @ 0xaaab060ed5e0] stts: 111104 ctts: 2560, ctts_index: 217, ctts_count: 300
  250. [mov,mp4,m4a,3gp,3g2,mj2 @ 0xaaab060ed5e0] stts: 111616 ctts: 1024, ctts_index: 218, ctts_count: 300
  251. [mov,mp4,m4a,3gp,3g2,mj2 @ 0xaaab060ed5e0] stts: 112128 ctts: 0, ctts_index: 219, ctts_count: 300
  252. [mov,mp4,m4a,3gp,3g2,mj2 @ 0xaaab060ed5e0] stts: 112640 ctts: 512, ctts_index: 220, ctts_count: 300
  253. [mov,mp4,m4a,3gp,3g2,mj2 @ 0xaaab060ed5e0] stts: 113152 ctts: 2048, ctts_index: 221, ctts_count: 300
  254. [mov,mp4,m4a,3gp,3g2,mj2 @ 0xaaab060ed5e0] stts: 113664 ctts: 512, ctts_index: 222, ctts_count: 300
  255. [mov,mp4,m4a,3gp,3g2,mj2 @ 0xaaab060ed5e0] stts: 114176 ctts: 512, ctts_index: 223, ctts_count: 300
  256. [mov,mp4,m4a,3gp,3g2,mj2 @ 0xaaab060ed5e0] stts: 114688 ctts: 2048, ctts_index: 224, ctts_count: 300
  257. [mov,mp4,m4a,3gp,3g2,mj2 @ 0xaaab060ed5e0] stts: 115200 ctts: 512, ctts_index: 225, ctts_count: 300
  258. [mov,mp4,m4a,3gp,3g2,mj2 @ 0xaaab060ed5e0] stts: 115712 ctts: 512, ctts_index: 226, ctts_count: 300
  259. [mov,mp4,m4a,3gp,3g2,mj2 @ 0xaaab060ed5e0] stts: 116224 ctts: 2560, ctts_index: 227, ctts_count: 300
  260. [mov,mp4,m4a,3gp,3g2,mj2 @ 0xaaab060ed5e0] stts: 116736 ctts: 1024, ctts_index: 228, ctts_count: 300
  261. [mov,mp4,m4a,3gp,3g2,mj2 @ 0xaaab060ed5e0] stts: 117248 ctts: 0, ctts_index: 229, ctts_count: 300
  262. [mov,mp4,m4a,3gp,3g2,mj2 @ 0xaaab060ed5e0] stts: 117760 ctts: 512, ctts_index: 230, ctts_count: 300
  263. [mov,mp4,m4a,3gp,3g2,mj2 @ 0xaaab060ed5e0] stts: 118272 ctts: 2560, ctts_index: 231, ctts_count: 300
  264. [mov,mp4,m4a,3gp,3g2,mj2 @ 0xaaab060ed5e0] stts: 118784 ctts: 1024, ctts_index: 232, ctts_count: 300
  265. [mov,mp4,m4a,3gp,3g2,mj2 @ 0xaaab060ed5e0] stts: 119296 ctts: 0, ctts_index: 233, ctts_count: 300
  266. [mov,mp4,m4a,3gp,3g2,mj2 @ 0xaaab060ed5e0] stts: 119808 ctts: 512, ctts_index: 234, ctts_count: 300
  267. [mov,mp4,m4a,3gp,3g2,mj2 @ 0xaaab060ed5e0] stts: 120320 ctts: 2560, ctts_index: 235, ctts_count: 300
  268. [mov,mp4,m4a,3gp,3g2,mj2 @ 0xaaab060ed5e0] stts: 120832 ctts: 1024, ctts_index: 236, ctts_count: 300
  269. [mov,mp4,m4a,3gp,3g2,mj2 @ 0xaaab060ed5e0] stts: 121344 ctts: 0, ctts_index: 237, ctts_count: 300
  270. [mov,mp4,m4a,3gp,3g2,mj2 @ 0xaaab060ed5e0] stts: 121856 ctts: 512, ctts_index: 238, ctts_count: 300
  271. [mov,mp4,m4a,3gp,3g2,mj2 @ 0xaaab060ed5e0] stts: 122368 ctts: 2560, ctts_index: 239, ctts_count: 300
  272. [mov,mp4,m4a,3gp,3g2,mj2 @ 0xaaab060ed5e0] stts: 122880 ctts: 1024, ctts_index: 240, ctts_count: 300
  273. [mov,mp4,m4a,3gp,3g2,mj2 @ 0xaaab060ed5e0] stts: 123392 ctts: 0, ctts_index: 241, ctts_count: 300
  274. [mov,mp4,m4a,3gp,3g2,mj2 @ 0xaaab060ed5e0] stts: 123904 ctts: 512, ctts_index: 242, ctts_count: 300
  275. [mov,mp4,m4a,3gp,3g2,mj2 @ 0xaaab060ed5e0] stts: 124416 ctts: 2560, ctts_index: 243, ctts_count: 300
  276. [mov,mp4,m4a,3gp,3g2,mj2 @ 0xaaab060ed5e0] stts: 124928 ctts: 1024, ctts_index: 244, ctts_count: 300
  277. [mov,mp4,m4a,3gp,3g2,mj2 @ 0xaaab060ed5e0] stts: 125440 ctts: 0, ctts_index: 245, ctts_count: 300
  278. [mov,mp4,m4a,3gp,3g2,mj2 @ 0xaaab060ed5e0] stts: 125952 ctts: 512, ctts_index: 246, ctts_count: 300
  279. [mov,mp4,m4a,3gp,3g2,mj2 @ 0xaaab060ed5e0] stts: 126464 ctts: 2048, ctts_index: 247, ctts_count: 300
  280. [mov,mp4,m4a,3gp,3g2,mj2 @ 0xaaab060ed5e0] stts: 126976 ctts: 512, ctts_index: 248, ctts_count: 300
  281. [mov,mp4,m4a,3gp,3g2,mj2 @ 0xaaab060ed5e0] stts: 127488 ctts: 512, ctts_index: 249, ctts_count: 300
  282. [mov,mp4,m4a,3gp,3g2,mj2 @ 0xaaab060ed5e0] stts: 128000 ctts: 1024, ctts_index: 250, ctts_count: 300
  283. [mov,mp4,m4a,3gp,3g2,mj2 @ 0xaaab060ed5e0] stts: 128512 ctts: 2560, ctts_index: 251, ctts_count: 300
  284. [mov,mp4,m4a,3gp,3g2,mj2 @ 0xaaab060ed5e0] stts: 129024 ctts: 1024, ctts_index: 252, ctts_count: 300
  285. [mov,mp4,m4a,3gp,3g2,mj2 @ 0xaaab060ed5e0] stts: 129536 ctts: 0, ctts_index: 253, ctts_count: 300
  286. [mov,mp4,m4a,3gp,3g2,mj2 @ 0xaaab060ed5e0] stts: 130048 ctts: 512, ctts_index: 254, ctts_count: 300
  287. [mov,mp4,m4a,3gp,3g2,mj2 @ 0xaaab060ed5e0] stts: 130560 ctts: 2560, ctts_index: 255, ctts_count: 300
  288. [mov,mp4,m4a,3gp,3g2,mj2 @ 0xaaab060ed5e0] stts: 131072 ctts: 1024, ctts_index: 256, ctts_count: 300
  289. [mov,mp4,m4a,3gp,3g2,mj2 @ 0xaaab060ed5e0] stts: 131584 ctts: 0, ctts_index: 257, ctts_count: 300
  290. [mov,mp4,m4a,3gp,3g2,mj2 @ 0xaaab060ed5e0] stts: 132096 ctts: 512, ctts_index: 258, ctts_count: 300
  291. [mov,mp4,m4a,3gp,3g2,mj2 @ 0xaaab060ed5e0] stts: 132608 ctts: 2048, ctts_index: 259, ctts_count: 300
  292. [mov,mp4,m4a,3gp,3g2,mj2 @ 0xaaab060ed5e0] stts: 133120 ctts: 512, ctts_index: 260, ctts_count: 300
  293. [mov,mp4,m4a,3gp,3g2,mj2 @ 0xaaab060ed5e0] stts: 133632 ctts: 512, ctts_index: 261, ctts_count: 300
  294. [mov,mp4,m4a,3gp,3g2,mj2 @ 0xaaab060ed5e0] stts: 134144 ctts: 2560, ctts_index: 262, ctts_count: 300
  295. [mov,mp4,m4a,3gp,3g2,mj2 @ 0xaaab060ed5e0] stts: 134656 ctts: 1024, ctts_index: 263, ctts_count: 300
  296. [mov,mp4,m4a,3gp,3g2,mj2 @ 0xaaab060ed5e0] stts: 135168 ctts: 0, ctts_index: 264, ctts_count: 300
  297. [mov,mp4,m4a,3gp,3g2,mj2 @ 0xaaab060ed5e0] stts: 135680 ctts: 512, ctts_index: 265, ctts_count: 300
  298. [mov,mp4,m4a,3gp,3g2,mj2 @ 0xaaab060ed5e0] stts: 136192 ctts: 2560, ctts_index: 266, ctts_count: 300
  299. [mov,mp4,m4a,3gp,3g2,mj2 @ 0xaaab060ed5e0] stts: 136704 ctts: 1024, ctts_index: 267, ctts_count: 300
  300. [mov,mp4,m4a,3gp,3g2,mj2 @ 0xaaab060ed5e0] stts: 137216 ctts: 0, ctts_index: 268, ctts_count: 300
  301. [mov,mp4,m4a,3gp,3g2,mj2 @ 0xaaab060ed5e0] stts: 137728 ctts: 512, ctts_index: 269, ctts_count: 300
  302. [mov,mp4,m4a,3gp,3g2,mj2 @ 0xaaab060ed5e0] stts: 138240 ctts: 2560, ctts_index: 270, ctts_count: 300
  303. [mov,mp4,m4a,3gp,3g2,mj2 @ 0xaaab060ed5e0] stts: 138752 ctts: 1024, ctts_index: 271, ctts_count: 300
  304. [mov,mp4,m4a,3gp,3g2,mj2 @ 0xaaab060ed5e0] stts: 139264 ctts: 0, ctts_index: 272, ctts_count: 300
  305. [mov,mp4,m4a,3gp,3g2,mj2 @ 0xaaab060ed5e0] stts: 139776 ctts: 512, ctts_index: 273, ctts_count: 300
  306. [mov,mp4,m4a,3gp,3g2,mj2 @ 0xaaab060ed5e0] stts: 140288 ctts: 2048, ctts_index: 274, ctts_count: 300
  307. [mov,mp4,m4a,3gp,3g2,mj2 @ 0xaaab060ed5e0] stts: 140800 ctts: 512, ctts_index: 275, ctts_count: 300
  308. [mov,mp4,m4a,3gp,3g2,mj2 @ 0xaaab060ed5e0] stts: 141312 ctts: 512, ctts_index: 276, ctts_count: 300
  309. [mov,mp4,m4a,3gp,3g2,mj2 @ 0xaaab060ed5e0] stts: 141824 ctts: 2560, ctts_index: 277, ctts_count: 300
  310. [mov,mp4,m4a,3gp,3g2,mj2 @ 0xaaab060ed5e0] stts: 142336 ctts: 1024, ctts_index: 278, ctts_count: 300
  311. [mov,mp4,m4a,3gp,3g2,mj2 @ 0xaaab060ed5e0] stts: 142848 ctts: 0, ctts_index: 279, ctts_count: 300
  312. [mov,mp4,m4a,3gp,3g2,mj2 @ 0xaaab060ed5e0] stts: 143360 ctts: 512, ctts_index: 280, ctts_count: 300
  313. [mov,mp4,m4a,3gp,3g2,mj2 @ 0xaaab060ed5e0] stts: 143872 ctts: 2560, ctts_index: 281, ctts_count: 300
  314. [mov,mp4,m4a,3gp,3g2,mj2 @ 0xaaab060ed5e0] stts: 144384 ctts: 1024, ctts_index: 282, ctts_count: 300
  315. [mov,mp4,m4a,3gp,3g2,mj2 @ 0xaaab060ed5e0] stts: 144896 ctts: 0, ctts_index: 283, ctts_count: 300
  316. [mov,mp4,m4a,3gp,3g2,mj2 @ 0xaaab060ed5e0] stts: 145408 ctts: 512, ctts_index: 284, ctts_count: 300
  317. [mov,mp4,m4a,3gp,3g2,mj2 @ 0xaaab060ed5e0] stts: 145920 ctts: 2560, ctts_index: 285, ctts_count: 300
  318. [mov,mp4,m4a,3gp,3g2,mj2 @ 0xaaab060ed5e0] stts: 146432 ctts: 1024, ctts_index: 286, ctts_count: 300
  319. [mov,mp4,m4a,3gp,3g2,mj2 @ 0xaaab060ed5e0] stts: 146944 ctts: 0, ctts_index: 287, ctts_count: 300
  320. [mov,mp4,m4a,3gp,3g2,mj2 @ 0xaaab060ed5e0] stts: 147456 ctts: 512, ctts_index: 288, ctts_count: 300
  321. [mov,mp4,m4a,3gp,3g2,mj2 @ 0xaaab060ed5e0] stts: 147968 ctts: 2048, ctts_index: 289, ctts_count: 300
  322. [mov,mp4,m4a,3gp,3g2,mj2 @ 0xaaab060ed5e0] stts: 148480 ctts: 512, ctts_index: 290, ctts_count: 300
  323. [mov,mp4,m4a,3gp,3g2,mj2 @ 0xaaab060ed5e0] stts: 148992 ctts: 512, ctts_index: 291, ctts_count: 300
  324. [mov,mp4,m4a,3gp,3g2,mj2 @ 0xaaab060ed5e0] stts: 149504 ctts: 2560, ctts_index: 292, ctts_count: 300
  325. [mov,mp4,m4a,3gp,3g2,mj2 @ 0xaaab060ed5e0] stts: 150016 ctts: 1024, ctts_index: 293, ctts_count: 300
  326. [mov,mp4,m4a,3gp,3g2,mj2 @ 0xaaab060ed5e0] stts: 150528 ctts: 0, ctts_index: 294, ctts_count: 300
  327. [mov,mp4,m4a,3gp,3g2,mj2 @ 0xaaab060ed5e0] stts: 151040 ctts: 512, ctts_index: 295, ctts_count: 300
  328. [mov,mp4,m4a,3gp,3g2,mj2 @ 0xaaab060ed5e0] stts: 151552 ctts: 2560, ctts_index: 296, ctts_count: 300
  329. [mov,mp4,m4a,3gp,3g2,mj2 @ 0xaaab060ed5e0] stts: 152064 ctts: 1024, ctts_index: 297, ctts_count: 300
  330. [mov,mp4,m4a,3gp,3g2,mj2 @ 0xaaab060ed5e0] stts: 152576 ctts: 0, ctts_index: 298, ctts_count: 300
  331. [mov,mp4,m4a,3gp,3g2,mj2 @ 0xaaab060ed5e0] stts: 153088 ctts: 512, ctts_index: 299, ctts_count: 300
  332. [mov,mp4,m4a,3gp,3g2,mj2 @ 0xaaab060ed5e0] Offset DTS by 1024 to make first pts zero.
  333. [mov,mp4,m4a,3gp,3g2,mj2 @ 0xaaab060ed5e0] Setting codecpar->delay to 2 for stream st: 0
  334. [mov,mp4,m4a,3gp,3g2,mj2 @ 0xaaab060ed5e0] Before avformat_find_stream_info() pos: 4788 bytes read:32768 seeks:0 nb_streams:1
  335. [h264 @ 0xaaab060eec00] nal_unit_type: 7(SPS), nal_ref_idc: 3
  336. [h264 @ 0xaaab060eec00] nal_unit_type: 8(PPS), nal_ref_idc: 3
  337. [h264 @ 0xaaab060eec00] nal_unit_type: 6(SEI), nal_ref_idc: 0
  338. [h264 @ 0xaaab060eec00] nal_unit_type: 5(IDR), nal_ref_idc: 3
  339. [h264 @ 0xaaab060eec00] Format yuv420p chosen by get_format().
  340. [h264 @ 0xaaab060eec00] Reinit context to 1920x1088, pix_fmt: yuv420p
  341. [h264 @ 0xaaab060eec00] no picture
  342. [mov,mp4,m4a,3gp,3g2,mj2 @ 0xaaab060ed5e0] All info found
  343. [mov,mp4,m4a,3gp,3g2,mj2 @ 0xaaab060ed5e0] After avformat_find_stream_info() pos: 316948 bytes read:316948 seeks:0 frames:1
  344. Input #0, mov,mp4,m4a,3gp,3g2,mj2, from '/home/ruben/satahome/video/Jellyfish_1080_10s_30MB.mp4':
  345.   Metadata:
  346.     major_brand     : isom
  347.     minor_version   : 512
  348.     compatible_brands: isomiso2avc1mp41
  349.     encoder         : Lavf57.63.100
  350.   Duration: 00:00:10.00, start: 0.000000, bitrate: 25030 kb/s
  351.     Stream #0:0(und), 1, 1/15360: Video: h264 (High), 1 reference frame (avc1 / 0x31637661), yuv420p(left), 1920x1080 (1920x1088) [SAR 1:1 DAR 16:9], 0/1, 25026 kb/s, 30 fps, 30 tbr, 15360 tbn, 60 tbc (default)
  352.     Metadata:
  353.       handler_name    : VideoHandler
  354. Successfully opened the file.
  355. Parsing a group of options: output url /dev/fb0.
  356. Applying option pix_fmt (set pixel format) with argument bgra.
  357. Applying option f (force format) with argument fbdev.
  358. Successfully parsed a group of options.
  359. Opening an output file: /dev/fb0.
  360. Successfully opened the file.
  361. detected 6 logical cores
  362. [h264 @ 0xaaab060f2310] nal_unit_type: 7(SPS), nal_ref_idc: 3
  363. [h264 @ 0xaaab060f2310] nal_unit_type: 8(PPS), nal_ref_idc: 3
  364. Stream mapping:
  365.   Stream #0:0 -> #0:0 (h264 (native) -> rawvideo (native))
  366. Press [q] to stop, [?] for help
  367. cur_dts is invalid st:0 (0) [init:0 i_done:0 finish:0] (this is harmless if it occurs once at the start per stream)
  368.     Last message repeated 1 times
  369. [h264 @ 0xaaab060f2310] nal_unit_type: 6(SEI), nal_ref_idc: 0
  370. [h264 @ 0xaaab060f2310] nal_unit_type: 5(IDR), nal_ref_idc: 3
  371. [h264 @ 0xaaab060f2310] Format drm_prime chosen by get_format().
  372. [h264 @ 0xaaab060f2310] Format drm_prime requires hwaccel initialisation.
  373. [h264 @ 0xaaab060f2310] ff_v4l2_request_init: avctx=0xaaab060f2310 hw_device_ctx=0xaaab060ed500 hw_frames_ctx=(nil)
  374. [h264 @ 0xaaab060f2310] v4l2_request_probe_media_device: avctx=0xaaab060f2310 ctx=0xffff84098070 path=/dev/media0 driver=hantro-vpu
  375. [h264 @ 0xaaab060f2310] v4l2_request_probe_video_device: avctx=0xaaab060f2310 ctx=0xffff84098070 path=/dev/video1 capabilities=69222400
  376. [h264 @ 0xaaab060f2310] v4l2_request_try_format: pixelformat 875967059 not supported for type 10
  377. [h264 @ 0xaaab060f2310] v4l2_request_probe_video_device: try output format failed
  378. [h264 @ 0xaaab060f2310] v4l2_request_probe_video_device: avctx=0xaaab060f2310 ctx=0xffff84098070 path=/dev/video2 capabilities=69222400
  379. [h264 @ 0xaaab060f2310] v4l2_request_try_format: pixelformat 875967059 not supported for type 10
  380. [h264 @ 0xaaab060f2310] v4l2_request_probe_video_device: try output format failed
  381. [h264 @ 0xaaab060f2310] Failed setup for format drm_prime: hwaccel initialisation returned error.
  382. [h264 @ 0xaaab060f2310] Format drm_prime not usable, retrying get_format() without it.
  383. [h264 @ 0xaaab060f2310] Format yuv420p chosen by get_format().
  384. [h264 @ 0xaaab060f2310] Reinit context to 1920x1088, pix_fmt: yuv420p
  385. [h264 @ 0xaaab060f2310] no picture
  386. cur_dts is invalid st:0 (0) [init:0 i_done:0 finish:0] (this is harmless if it occurs once at the start per stream)
  387. [h264 @ 0xaaab061197d0] nal_unit_type: 1(Coded slice of a non-IDR picture), nal_ref_idc: 2
  388. [h264 @ 0xaaab061197d0] no picture
  389. cur_dts is invalid st:0 (0) [init:0 i_done:0 finish:0] (this is harmless if it occurs once at the start per stream)
  390. [h264 @ 0xaaab0616c570] nal_unit_type: 1(Coded slice of a non-IDR picture), nal_ref_idc: 2
  391. cur_dts is invalid st:0 (0) [init:0 i_done:0 finish:0] (this is harmless if it occurs once at the start per stream)
  392. [h264 @ 0xaaab0617eaf0] nal_unit_type: 1(Coded slice of a non-IDR picture), nal_ref_idc: 0
  393. cur_dts is invalid st:0 (0) [init:0 i_done:0 finish:0] (this is harmless if it occurs once at the start per stream)
  394. [h264 @ 0xaaab06199e60] nal_unit_type: 1(Coded slice of a non-IDR picture), nal_ref_idc: 0
  395. cur_dts is invalid st:0 (0) [init:0 i_done:0 finish:0] (this is harmless if it occurs once at the start per stream)
  396. [h264 @ 0xaaab061b5410] nal_unit_type: 1(Coded slice of a non-IDR picture), nal_ref_idc: 2
  397. [h264 @ 0xaaab061d09c0] nal_unit_type: 1(Coded slice of a non-IDR picture), nal_ref_idc: 2
  398. cur_dts is invalid st:0 (0) [init:0 i_done:0 finish:0] (this is harmless if it occurs once at the start per stream)
  399. [h264 @ 0xaaab060f2310] nal_unit_type: 1(Coded slice of a non-IDR picture), nal_ref_idc: 0
  400. cur_dts is invalid st:0 (0) [init:0 i_done:0 finish:0] (this is harmless if it occurs once at the start per stream)
  401. [h264 @ 0xaaab061197d0] nal_unit_type: 1(Coded slice of a non-IDR picture), nal_ref_idc: 0
  402. [graph 0 input from stream 0:0 @ 0xaaab061ecf60] Setting 'video_size' to value '1920x1080'
  403. [graph 0 input from stream 0:0 @ 0xaaab061ecf60] Setting 'pix_fmt' to value '0'
  404. [graph 0 input from stream 0:0 @ 0xaaab061ecf60] Setting 'time_base' to value '1/15360'
  405. [graph 0 input from stream 0:0 @ 0xaaab061ecf60] Setting 'pixel_aspect' to value '1/1'
  406. [graph 0 input from stream 0:0 @ 0xaaab061ecf60] Setting 'sws_param' to value 'flags=2'
  407. [graph 0 input from stream 0:0 @ 0xaaab061ecf60] Setting 'frame_rate' to value '30/1'
  408. [graph 0 input from stream 0:0 @ 0xaaab061ecf60] w:1920 h:1080 pixfmt:yuv420p tb:1/15360 fr:30/1 sar:1/1 sws_param:flags=2
  409. [format @ 0xaaab061ed980] Setting 'pix_fmts' to value 'bgra'
  410. [auto_scaler_0 @ 0xaaab061eed50] Setting 'flags' to value 'bicubic'
  411. [auto_scaler_0 @ 0xaaab061eed50] w:iw h:ih flags:'bicubic' interl:0
  412. [format @ 0xaaab061ed980] auto-inserting filter 'auto_scaler_0' between the filter 'Parsed_null_0' and the filter 'format'
  413. [AVFilterGraph @ 0xaaab060f2a20] query_formats: 4 queried, 2 merged, 1 already done, 0 delayed
  414. [swscaler @ 0xaaab061ef9b0] No accelerated colorspace conversion found from yuv420p to bgra.
  415. [auto_scaler_0 @ 0xaaab061eed50] w:1920 h:1080 fmt:yuv420p sar:1/1 -> w:1920 h:1080 fmt:bgra sar:1/1 flags:0x4
  416. Output #0, fbdev, to '/dev/fb0':
  417.   Metadata:
  418.     major_brand     : isom
  419.     minor_version   : 512
  420.     compatible_brands: isomiso2avc1mp41
  421.     encoder         : Lavf58.29.100
  422.     Stream #0:0(und), 0, 1/30: Video: rawvideo, 1 reference frame (BGRA / 0x41524742), bgra(left), 1920x1080 [SAR 1:1 DAR 16:9], 0/1, q=2-31, 1990656 kb/s, 30 fps, 30 tbn, 30 tbc (default)
  423.     Metadata:
  424.       handler_name    : VideoHandler
  425.       encoder         : Lavc58.54.100 rawvideo
  426. [h264 @ 0xaaab0616c570] nal_unit_type: 1(Coded slice of a non-IDR picture), nal_ref_idc: 0
  427. [h264 @ 0xaaab0617eaf0] nal_unit_type: 1(Coded slice of a non-IDR picture), nal_ref_idc: 2
  428. [h264 @ 0xaaab06199e60] nal_unit_type: 1(Coded slice of a non-IDR picture), nal_ref_idc: 2
  429. [h264 @ 0xaaab061b5410] nal_unit_type: 1(Coded slice of a non-IDR picture), nal_ref_idc: 0
  430. [h264 @ 0xaaab061d09c0] nal_unit_type: 1(Coded slice of a non-IDR picture), nal_ref_idc: 0
  431. [h264 @ 0xaaab060f2310] nal_unit_type: 1(Coded slice of a non-IDR picture), nal_ref_idc: 2
  432. [h264 @ 0xaaab061197d0] nal_unit_type: 1(Coded slice of a non-IDR picture), nal_ref_idc: 2
  433. [h264 @ 0xaaab0616c570] nal_unit_type: 1(Coded slice of a non-IDR picture), nal_ref_idc: 0
  434. [h264 @ 0xaaab0617eaf0] nal_unit_type: 1(Coded slice of a non-IDR picture), nal_ref_idc: 0
  435. [h264 @ 0xaaab06199e60] nal_unit_type: 1(Coded slice of a non-IDR picture), nal_ref_idc: 2
  436. [h264 @ 0xaaab061b5410] nal_unit_type: 1(Coded slice of a non-IDR picture), nal_ref_idc: 2
  437. [h264 @ 0xaaab061d09c0] nal_unit_type: 1(Coded slice of a non-IDR picture), nal_ref_idc: 0
  438. [h264 @ 0xaaab060f2310] nal_unit_type: 1(Coded slice of a non-IDR picture), nal_ref_idc: 0
  439. [h264 @ 0xaaab061197d0] nal_unit_type: 1(Coded slice of a non-IDR picture), nal_ref_idc: 2
  440. [h264 @ 0xaaab0616c570] nal_unit_type: 1(Coded slice of a non-IDR picture), nal_ref_idc: 2
  441. [h264 @ 0xaaab0617eaf0] nal_unit_type: 1(Coded slice of a non-IDR picture), nal_ref_idc: 0
  442. [h264 @ 0xaaab06199e60] nal_unit_type: 1(Coded slice of a non-IDR picture), nal_ref_idc: 0
  443. frame=   18 fps=0.0 q=-0.0 size=N/A time=00:00:00.60 bitrate=N/A speed=1.19x    
  444. [h264 @ 0xaaab061b5410] nal_unit_type: 1(Coded slice of a non-IDR picture), nal_ref_idc: 2
  445. [h264 @ 0xaaab061d09c0] nal_unit_type: 1(Coded slice of a non-IDR picture), nal_ref_idc: 2
  446. [h264 @ 0xaaab060f2310] nal_unit_type: 1(Coded slice of a non-IDR picture), nal_ref_idc: 0
  447. [h264 @ 0xaaab061197d0] nal_unit_type: 1(Coded slice of a non-IDR picture), nal_ref_idc: 0
  448. [h264 @ 0xaaab0616c570] nal_unit_type: 1(Coded slice of a non-IDR picture), nal_ref_idc: 2
  449. [h264 @ 0xaaab0617eaf0] nal_unit_type: 1(Coded slice of a non-IDR picture), nal_ref_idc: 2
  450. [h264 @ 0xaaab06199e60] nal_unit_type: 1(Coded slice of a non-IDR picture), nal_ref_idc: 0
  451. [h264 @ 0xaaab061b5410] nal_unit_type: 1(Coded slice of a non-IDR picture), nal_ref_idc: 0
  452. [h264 @ 0xaaab061d09c0] nal_unit_type: 1(Coded slice of a non-IDR picture), nal_ref_idc: 2
  453. [h264 @ 0xaaab060f2310] nal_unit_type: 1(Coded slice of a non-IDR picture), nal_ref_idc: 2
  454. [h264 @ 0xaaab061197d0] nal_unit_type: 1(Coded slice of a non-IDR picture), nal_ref_idc: 0
  455. [h264 @ 0xaaab0616c570] nal_unit_type: 1(Coded slice of a non-IDR picture), nal_ref_idc: 0
  456. [h264 @ 0xaaab0617eaf0] nal_unit_type: 1(Coded slice of a non-IDR picture), nal_ref_idc: 2
  457. [h264 @ 0xaaab06199e60] nal_unit_type: 1(Coded slice of a non-IDR picture), nal_ref_idc: 2
  458. [h264 @ 0xaaab061b5410] nal_unit_type: 1(Coded slice of a non-IDR picture), nal_ref_idc: 2
  459. [h264 @ 0xaaab061d09c0] nal_unit_type: 1(Coded slice of a non-IDR picture), nal_ref_idc: 0
  460. [h264 @ 0xaaab060f2310] nal_unit_type: 1(Coded slice of a non-IDR picture), nal_ref_idc: 0
  461. [h264 @ 0xaaab061197d0] nal_unit_type: 1(Coded slice of a non-IDR picture), nal_ref_idc: 2
  462. [h264 @ 0xaaab0616c570] nal_unit_type: 1(Coded slice of a non-IDR picture), nal_ref_idc: 2
  463. [h264 @ 0xaaab0617eaf0] nal_unit_type: 1(Coded slice of a non-IDR picture), nal_ref_idc: 0
  464. [h264 @ 0xaaab06199e60] nal_unit_type: 1(Coded slice of a non-IDR picture), nal_ref_idc: 0
  465. [h264 @ 0xaaab061b5410] nal_unit_type: 1(Coded slice of a non-IDR picture), nal_ref_idc: 0
  466. [h264 @ 0xaaab061d09c0] nal_unit_type: 1(Coded slice of a non-IDR picture), nal_ref_idc: 2
  467. [h264 @ 0xaaab060f2310] nal_unit_type: 1(Coded slice of a non-IDR picture), nal_ref_idc: 2
  468. [h264 @ 0xaaab061197d0] nal_unit_type: 1(Coded slice of a non-IDR picture), nal_ref_idc: 0
  469. [h264 @ 0xaaab0616c570] nal_unit_type: 1(Coded slice of a non-IDR picture), nal_ref_idc: 0
  470. frame=   44 fps= 43 q=-0.0 size=N/A time=00:00:01.46 bitrate=N/A speed=1.43x    
  471. [h264 @ 0xaaab0617eaf0] nal_unit_type: 1(Coded slice of a non-IDR picture), nal_ref_idc: 2
  472. [h264 @ 0xaaab06199e60] nal_unit_type: 1(Coded slice of a non-IDR picture), nal_ref_idc: 2
  473. [h264 @ 0xaaab061b5410] nal_unit_type: 1(Coded slice of a non-IDR picture), nal_ref_idc: 0
  474. [h264 @ 0xaaab061d09c0] nal_unit_type: 1(Coded slice of a non-IDR picture), nal_ref_idc: 0
  475. [h264 @ 0xaaab060f2310] nal_unit_type: 1(Coded slice of a non-IDR picture), nal_ref_idc: 0
  476. [h264 @ 0xaaab061197d0] nal_unit_type: 1(Coded slice of a non-IDR picture), nal_ref_idc: 2
  477. [h264 @ 0xaaab0616c570] nal_unit_type: 1(Coded slice of a non-IDR picture), nal_ref_idc: 2
  478. [h264 @ 0xaaab0617eaf0] nal_unit_type: 1(Coded slice of a non-IDR picture), nal_ref_idc: 0
  479. [h264 @ 0xaaab06199e60] nal_unit_type: 1(Coded slice of a non-IDR picture), nal_ref_idc: 0
  480. [h264 @ 0xaaab061b5410] nal_unit_type: 1(Coded slice of a non-IDR picture), nal_ref_idc: 2
  481. [h264 @ 0xaaab061d09c0] nal_unit_type: 1(Coded slice of a non-IDR picture), nal_ref_idc: 2
  482. [h264 @ 0xaaab060f2310] nal_unit_type: 1(Coded slice of a non-IDR picture), nal_ref_idc: 0
  483. [h264 @ 0xaaab061197d0] nal_unit_type: 1(Coded slice of a non-IDR picture), nal_ref_idc: 0
  484. [h264 @ 0xaaab0616c570] nal_unit_type: 1(Coded slice of a non-IDR picture), nal_ref_idc: 2
  485. [h264 @ 0xaaab0617eaf0] nal_unit_type: 1(Coded slice of a non-IDR picture), nal_ref_idc: 2
  486. [h264 @ 0xaaab06199e60] nal_unit_type: 1(Coded slice of a non-IDR picture), nal_ref_idc: 0
  487. [h264 @ 0xaaab061b5410] nal_unit_type: 1(Coded slice of a non-IDR picture), nal_ref_idc: 0
  488. [h264 @ 0xaaab061d09c0] nal_unit_type: 1(Coded slice of a non-IDR picture), nal_ref_idc: 2
  489. [h264 @ 0xaaab060f2310] nal_unit_type: 1(Coded slice of a non-IDR picture), nal_ref_idc: 2
  490. [h264 @ 0xaaab061197d0] nal_unit_type: 1(Coded slice of a non-IDR picture), nal_ref_idc: 0
  491. [h264 @ 0xaaab0616c570] nal_unit_type: 1(Coded slice of a non-IDR picture), nal_ref_idc: 0
  492. [h264 @ 0xaaab0617eaf0] nal_unit_type: 1(Coded slice of a non-IDR picture), nal_ref_idc: 2
  493. [h264 @ 0xaaab06199e60] nal_unit_type: 1(Coded slice of a non-IDR picture), nal_ref_idc: 2
  494. [h264 @ 0xaaab061b5410] nal_unit_type: 1(Coded slice of a non-IDR picture), nal_ref_idc: 0
  495. frame=   68 fps= 44 q=-0.0 size=N/A time=00:00:02.26 bitrate=N/A speed=1.47x    
  496. [h264 @ 0xaaab061d09c0] nal_unit_type: 1(Coded slice of a non-IDR picture), nal_ref_idc: 0
  497. [h264 @ 0xaaab060f2310] nal_unit_type: 1(Coded slice of a non-IDR picture), nal_ref_idc: 2
  498. [h264 @ 0xaaab061197d0] nal_unit_type: 1(Coded slice of a non-IDR picture), nal_ref_idc: 2
  499. [h264 @ 0xaaab0616c570] nal_unit_type: 1(Coded slice of a non-IDR picture), nal_ref_idc: 0
  500. [h264 @ 0xaaab0617eaf0] nal_unit_type: 1(Coded slice of a non-IDR picture), nal_ref_idc: 0
  501. [h264 @ 0xaaab06199e60] nal_unit_type: 1(Coded slice of a non-IDR picture), nal_ref_idc: 2
  502. [h264 @ 0xaaab061b5410] nal_unit_type: 1(Coded slice of a non-IDR picture), nal_ref_idc: 2
  503. [h264 @ 0xaaab061d09c0] nal_unit_type: 1(Coded slice of a non-IDR picture), nal_ref_idc: 0
  504. [h264 @ 0xaaab060f2310] nal_unit_type: 1(Coded slice of a non-IDR picture), nal_ref_idc: 0
  505. [h264 @ 0xaaab061197d0] nal_unit_type: 1(Coded slice of a non-IDR picture), nal_ref_idc: 2
  506. [h264 @ 0xaaab0616c570] nal_unit_type: 1(Coded slice of a non-IDR picture), nal_ref_idc: 2
  507. [h264 @ 0xaaab0617eaf0] nal_unit_type: 1(Coded slice of a non-IDR picture), nal_ref_idc: 0
  508. [h264 @ 0xaaab06199e60] nal_unit_type: 1(Coded slice of a non-IDR picture), nal_ref_idc: 0
  509. [h264 @ 0xaaab061b5410] nal_unit_type: 1(Coded slice of a non-IDR picture), nal_ref_idc: 2
  510. [h264 @ 0xaaab061d09c0] nal_unit_type: 1(Coded slice of a non-IDR picture), nal_ref_idc: 2
  511. [h264 @ 0xaaab060f2310] nal_unit_type: 1(Coded slice of a non-IDR picture), nal_ref_idc: 0
  512. [h264 @ 0xaaab061197d0] nal_unit_type: 1(Coded slice of a non-IDR picture), nal_ref_idc: 0
  513. [h264 @ 0xaaab0616c570] nal_unit_type: 1(Coded slice of a non-IDR picture), nal_ref_idc: 2
  514. [h264 @ 0xaaab0617eaf0] nal_unit_type: 1(Coded slice of a non-IDR picture), nal_ref_idc: 2
  515. [h264 @ 0xaaab06199e60] nal_unit_type: 1(Coded slice of a non-IDR picture), nal_ref_idc: 0
  516. [h264 @ 0xaaab061b5410] nal_unit_type: 1(Coded slice of a non-IDR picture), nal_ref_idc: 0
  517. [h264 @ 0xaaab061d09c0] nal_unit_type: 1(Coded slice of a non-IDR picture), nal_ref_idc: 2
  518. [h264 @ 0xaaab060f2310] nal_unit_type: 1(Coded slice of a non-IDR picture), nal_ref_idc: 2
  519. [h264 @ 0xaaab061197d0] nal_unit_type: 1(Coded slice of a non-IDR picture), nal_ref_idc: 0
  520. [h264 @ 0xaaab0616c570] nal_unit_type: 1(Coded slice of a non-IDR picture), nal_ref_idc: 0
  521. [h264 @ 0xaaab0617eaf0] nal_unit_type: 1(Coded slice of a non-IDR picture), nal_ref_idc: 2
  522. frame=   94 fps= 46 q=-0.0 size=N/A time=00:00:03.13 bitrate=N/A speed=1.52x    
  523. [h264 @ 0xaaab06199e60] nal_unit_type: 1(Coded slice of a non-IDR picture), nal_ref_idc: 2
  524. [h264 @ 0xaaab061b5410] nal_unit_type: 1(Coded slice of a non-IDR picture), nal_ref_idc: 0
  525. [h264 @ 0xaaab061d09c0] nal_unit_type: 1(Coded slice of a non-IDR picture), nal_ref_idc: 0
  526. [h264 @ 0xaaab060f2310] nal_unit_type: 1(Coded slice of a non-IDR picture), nal_ref_idc: 2
  527. [h264 @ 0xaaab061197d0] nal_unit_type: 1(Coded slice of a non-IDR picture), nal_ref_idc: 2
  528. [h264 @ 0xaaab0616c570] nal_unit_type: 1(Coded slice of a non-IDR picture), nal_ref_idc: 0
  529. [h264 @ 0xaaab0617eaf0] nal_unit_type: 1(Coded slice of a non-IDR picture), nal_ref_idc: 0
  530. [h264 @ 0xaaab06199e60] nal_unit_type: 1(Coded slice of a non-IDR picture), nal_ref_idc: 2
  531. [h264 @ 0xaaab061b5410] nal_unit_type: 1(Coded slice of a non-IDR picture), nal_ref_idc: 2
  532. [h264 @ 0xaaab061d09c0] nal_unit_type: 1(Coded slice of a non-IDR picture), nal_ref_idc: 0
  533. [h264 @ 0xaaab060f2310] nal_unit_type: 1(Coded slice of a non-IDR picture), nal_ref_idc: 0
  534. [h264 @ 0xaaab061197d0] nal_unit_type: 1(Coded slice of a non-IDR picture), nal_ref_idc: 2
  535. [h264 @ 0xaaab0616c570] nal_unit_type: 1(Coded slice of a non-IDR picture), nal_ref_idc: 2
  536. [h264 @ 0xaaab0617eaf0] nal_unit_type: 1(Coded slice of a non-IDR picture), nal_ref_idc: 0
  537. [h264 @ 0xaaab06199e60] nal_unit_type: 1(Coded slice of a non-IDR picture), nal_ref_idc: 0
  538. [h264 @ 0xaaab061b5410] nal_unit_type: 1(Coded slice of a non-IDR picture), nal_ref_idc: 2
  539. [h264 @ 0xaaab061d09c0] nal_unit_type: 1(Coded slice of a non-IDR picture), nal_ref_idc: 2
  540. [h264 @ 0xaaab060f2310] nal_unit_type: 1(Coded slice of a non-IDR picture), nal_ref_idc: 0
  541. [h264 @ 0xaaab061197d0] nal_unit_type: 1(Coded slice of a non-IDR picture), nal_ref_idc: 0
  542. [h264 @ 0xaaab0616c570] nal_unit_type: 1(Coded slice of a non-IDR picture), nal_ref_idc: 2
  543. [h264 @ 0xaaab0617eaf0] nal_unit_type: 1(Coded slice of a non-IDR picture), nal_ref_idc: 2
  544. [h264 @ 0xaaab06199e60] nal_unit_type: 1(Coded slice of a non-IDR picture), nal_ref_idc: 0
  545. [h264 @ 0xaaab061b5410] nal_unit_type: 1(Coded slice of a non-IDR picture), nal_ref_idc: 0
  546. [h264 @ 0xaaab061d09c0] nal_unit_type: 1(Coded slice of a non-IDR picture), nal_ref_idc: 2
  547. [h264 @ 0xaaab060f2310] nal_unit_type: 1(Coded slice of a non-IDR picture), nal_ref_idc: 2
  548. frame=  119 fps= 46 q=-0.0 size=N/A time=00:00:03.96 bitrate=N/A speed=1.54x    
  549. [h264 @ 0xaaab061197d0] nal_unit_type: 1(Coded slice of a non-IDR picture), nal_ref_idc: 0
  550. [h264 @ 0xaaab0616c570] nal_unit_type: 1(Coded slice of a non-IDR picture), nal_ref_idc: 0
  551. [h264 @ 0xaaab0617eaf0] nal_unit_type: 1(Coded slice of a non-IDR picture), nal_ref_idc: 2
  552. [h264 @ 0xaaab06199e60] nal_unit_type: 1(Coded slice of a non-IDR picture), nal_ref_idc: 2
  553. [h264 @ 0xaaab061b5410] nal_unit_type: 1(Coded slice of a non-IDR picture), nal_ref_idc: 0
  554. [h264 @ 0xaaab061d09c0] nal_unit_type: 1(Coded slice of a non-IDR picture), nal_ref_idc: 0
  555. [h264 @ 0xaaab060f2310] nal_unit_type: 1(Coded slice of a non-IDR picture), nal_ref_idc: 2
  556. [h264 @ 0xaaab061197d0] nal_unit_type: 1(Coded slice of a non-IDR picture), nal_ref_idc: 2
  557. [h264 @ 0xaaab0616c570] nal_unit_type: 1(Coded slice of a non-IDR picture), nal_ref_idc: 0
  558. [h264 @ 0xaaab0617eaf0] nal_unit_type: 1(Coded slice of a non-IDR picture), nal_ref_idc: 0
  559. [h264 @ 0xaaab06199e60] nal_unit_type: 1(Coded slice of a non-IDR picture), nal_ref_idc: 2
  560. [h264 @ 0xaaab061b5410] nal_unit_type: 1(Coded slice of a non-IDR picture), nal_ref_idc: 2
  561. [h264 @ 0xaaab061d09c0] nal_unit_type: 1(Coded slice of a non-IDR picture), nal_ref_idc: 0
  562. [h264 @ 0xaaab060f2310] nal_unit_type: 1(Coded slice of a non-IDR picture), nal_ref_idc: 0
  563. [h264 @ 0xaaab061197d0] nal_unit_type: 1(Coded slice of a non-IDR picture), nal_ref_idc: 2
  564. [h264 @ 0xaaab0616c570] nal_unit_type: 1(Coded slice of a non-IDR picture), nal_ref_idc: 2
  565. [h264 @ 0xaaab0617eaf0] nal_unit_type: 1(Coded slice of a non-IDR picture), nal_ref_idc: 0
  566. [h264 @ 0xaaab06199e60] nal_unit_type: 1(Coded slice of a non-IDR picture), nal_ref_idc: 0
  567. [h264 @ 0xaaab061b5410] nal_unit_type: 1(Coded slice of a non-IDR picture), nal_ref_idc: 2
  568. [h264 @ 0xaaab061d09c0] nal_unit_type: 1(Coded slice of a non-IDR picture), nal_ref_idc: 2
  569. [h264 @ 0xaaab060f2310] nal_unit_type: 1(Coded slice of a non-IDR picture), nal_ref_idc: 0
  570. [h264 @ 0xaaab061197d0] nal_unit_type: 1(Coded slice of a non-IDR picture), nal_ref_idc: 0
  571. [h264 @ 0xaaab0616c570] nal_unit_type: 1(Coded slice of a non-IDR picture), nal_ref_idc: 2
  572. [h264 @ 0xaaab0617eaf0] nal_unit_type: 1(Coded slice of a non-IDR picture), nal_ref_idc: 2
  573. [h264 @ 0xaaab06199e60] nal_unit_type: 1(Coded slice of a non-IDR picture), nal_ref_idc: 0
  574. [h264 @ 0xaaab061b5410] nal_unit_type: 1(Coded slice of a non-IDR picture), nal_ref_idc: 0
  575. frame=  145 fps= 47 q=-0.0 size=N/A time=00:00:04.83 bitrate=N/A speed=1.56x    
  576. [h264 @ 0xaaab061d09c0] nal_unit_type: 1(Coded slice of a non-IDR picture), nal_ref_idc: 2
  577. [h264 @ 0xaaab060f2310] nal_unit_type: 1(Coded slice of a non-IDR picture), nal_ref_idc: 2
  578. [h264 @ 0xaaab061197d0] nal_unit_type: 1(Coded slice of a non-IDR picture), nal_ref_idc: 0
  579. [h264 @ 0xaaab0616c570] nal_unit_type: 1(Coded slice of a non-IDR picture), nal_ref_idc: 0
  580. [h264 @ 0xaaab0617eaf0] nal_unit_type: 1(Coded slice of a non-IDR picture), nal_ref_idc: 2
  581. [h264 @ 0xaaab06199e60] nal_unit_type: 1(Coded slice of a non-IDR picture), nal_ref_idc: 2
  582. [h264 @ 0xaaab061b5410] nal_unit_type: 1(Coded slice of a non-IDR picture), nal_ref_idc: 0
  583. [h264 @ 0xaaab061d09c0] nal_unit_type: 1(Coded slice of a non-IDR picture), nal_ref_idc: 0
  584. [h264 @ 0xaaab060f2310] nal_unit_type: 1(Coded slice of a non-IDR picture), nal_ref_idc: 2
  585. [h264 @ 0xaaab061197d0] nal_unit_type: 1(Coded slice of a non-IDR picture), nal_ref_idc: 2
  586. [h264 @ 0xaaab0616c570] nal_unit_type: 1(Coded slice of a non-IDR picture), nal_ref_idc: 0
  587. [h264 @ 0xaaab0617eaf0] nal_unit_type: 1(Coded slice of a non-IDR picture), nal_ref_idc: 0
  588. [h264 @ 0xaaab06199e60] nal_unit_type: 1(Coded slice of a non-IDR picture), nal_ref_idc: 2
  589. [h264 @ 0xaaab061b5410] nal_unit_type: 1(Coded slice of a non-IDR picture), nal_ref_idc: 2
  590. [h264 @ 0xaaab061d09c0] nal_unit_type: 1(Coded slice of a non-IDR picture), nal_ref_idc: 0
  591. [h264 @ 0xaaab060f2310] nal_unit_type: 1(Coded slice of a non-IDR picture), nal_ref_idc: 0
  592. [h264 @ 0xaaab061197d0] nal_unit_type: 1(Coded slice of a non-IDR picture), nal_ref_idc: 2
  593. [h264 @ 0xaaab0616c570] nal_unit_type: 1(Coded slice of a non-IDR picture), nal_ref_idc: 2
  594. [h264 @ 0xaaab0617eaf0] nal_unit_type: 1(Coded slice of a non-IDR picture), nal_ref_idc: 0
  595. [h264 @ 0xaaab06199e60] nal_unit_type: 1(Coded slice of a non-IDR picture), nal_ref_idc: 0
  596. [h264 @ 0xaaab061b5410] nal_unit_type: 1(Coded slice of a non-IDR picture), nal_ref_idc: 2
  597. [h264 @ 0xaaab061d09c0] nal_unit_type: 1(Coded slice of a non-IDR picture), nal_ref_idc: 2
  598. [h264 @ 0xaaab060f2310] nal_unit_type: 1(Coded slice of a non-IDR picture), nal_ref_idc: 0
  599. [h264 @ 0xaaab061197d0] nal_unit_type: 1(Coded slice of a non-IDR picture), nal_ref_idc: 0
  600. [h264 @ 0xaaab0616c570] nal_unit_type: 1(Coded slice of a non-IDR picture), nal_ref_idc: 2
  601. [h264 @ 0xaaab0617eaf0] nal_unit_type: 1(Coded slice of a non-IDR picture), nal_ref_idc: 2
  602. frame=  171 fps= 48 q=-0.0 size=N/A time=00:00:05.70 bitrate=N/A speed=1.59x    
  603. [h264 @ 0xaaab06199e60] nal_unit_type: 1(Coded slice of a non-IDR picture), nal_ref_idc: 0
  604. [h264 @ 0xaaab061b5410] nal_unit_type: 1(Coded slice of a non-IDR picture), nal_ref_idc: 0
  605. [h264 @ 0xaaab061d09c0] nal_unit_type: 1(Coded slice of a non-IDR picture), nal_ref_idc: 2
  606. [h264 @ 0xaaab060f2310] nal_unit_type: 1(Coded slice of a non-IDR picture), nal_ref_idc: 2
  607. [h264 @ 0xaaab061197d0] nal_unit_type: 1(Coded slice of a non-IDR picture), nal_ref_idc: 0
  608. [h264 @ 0xaaab0616c570] nal_unit_type: 1(Coded slice of a non-IDR picture), nal_ref_idc: 0
  609. [h264 @ 0xaaab0617eaf0] nal_unit_type: 1(Coded slice of a non-IDR picture), nal_ref_idc: 2
  610. [h264 @ 0xaaab06199e60] nal_unit_type: 1(Coded slice of a non-IDR picture), nal_ref_idc: 2
  611. [h264 @ 0xaaab061b5410] nal_unit_type: 1(Coded slice of a non-IDR picture), nal_ref_idc: 0
  612. [h264 @ 0xaaab061d09c0] nal_unit_type: 1(Coded slice of a non-IDR picture), nal_ref_idc: 0
  613. [h264 @ 0xaaab060f2310] nal_unit_type: 1(Coded slice of a non-IDR picture), nal_ref_idc: 2
  614. [h264 @ 0xaaab061197d0] nal_unit_type: 1(Coded slice of a non-IDR picture), nal_ref_idc: 2
  615. [h264 @ 0xaaab0616c570] nal_unit_type: 1(Coded slice of a non-IDR picture), nal_ref_idc: 0
  616. [h264 @ 0xaaab0617eaf0] nal_unit_type: 1(Coded slice of a non-IDR picture), nal_ref_idc: 0
  617. [h264 @ 0xaaab06199e60] nal_unit_type: 1(Coded slice of a non-IDR picture), nal_ref_idc: 2
  618. [h264 @ 0xaaab061b5410] nal_unit_type: 1(Coded slice of a non-IDR picture), nal_ref_idc: 2
  619. [h264 @ 0xaaab061d09c0] nal_unit_type: 1(Coded slice of a non-IDR picture), nal_ref_idc: 0
  620. [h264 @ 0xaaab060f2310] nal_unit_type: 1(Coded slice of a non-IDR picture), nal_ref_idc: 0
  621. [h264 @ 0xaaab061197d0] nal_unit_type: 1(Coded slice of a non-IDR picture), nal_ref_idc: 2
  622. [h264 @ 0xaaab0616c570] nal_unit_type: 1(Coded slice of a non-IDR picture), nal_ref_idc: 2
  623. [h264 @ 0xaaab0617eaf0] nal_unit_type: 1(Coded slice of a non-IDR picture), nal_ref_idc: 0
  624. [h264 @ 0xaaab06199e60] nal_unit_type: 1(Coded slice of a non-IDR picture), nal_ref_idc: 0
  625. [h264 @ 0xaaab061b5410] nal_unit_type: 1(Coded slice of a non-IDR picture), nal_ref_idc: 2
  626. [h264 @ 0xaaab061d09c0] nal_unit_type: 1(Coded slice of a non-IDR picture), nal_ref_idc: 2
  627. [h264 @ 0xaaab060f2310] nal_unit_type: 1(Coded slice of a non-IDR picture), nal_ref_idc: 0
  628. frame=  196 fps= 48 q=-0.0 size=N/A time=00:00:06.53 bitrate=N/A speed=1.59x    
  629. [h264 @ 0xaaab061197d0] nal_unit_type: 1(Coded slice of a non-IDR picture), nal_ref_idc: 0
  630. [h264 @ 0xaaab0616c570] nal_unit_type: 1(Coded slice of a non-IDR picture), nal_ref_idc: 2
  631. [h264 @ 0xaaab0617eaf0] nal_unit_type: 1(Coded slice of a non-IDR picture), nal_ref_idc: 2
  632. [h264 @ 0xaaab06199e60] nal_unit_type: 1(Coded slice of a non-IDR picture), nal_ref_idc: 0
  633. [h264 @ 0xaaab061b5410] nal_unit_type: 1(Coded slice of a non-IDR picture), nal_ref_idc: 0
  634. [h264 @ 0xaaab061d09c0] nal_unit_type: 1(Coded slice of a non-IDR picture), nal_ref_idc: 2
  635. [h264 @ 0xaaab060f2310] nal_unit_type: 1(Coded slice of a non-IDR picture), nal_ref_idc: 2
  636. [h264 @ 0xaaab061197d0] nal_unit_type: 1(Coded slice of a non-IDR picture), nal_ref_idc: 0
  637. [h264 @ 0xaaab0616c570] nal_unit_type: 1(Coded slice of a non-IDR picture), nal_ref_idc: 0
  638. [h264 @ 0xaaab0617eaf0] nal_unit_type: 1(Coded slice of a non-IDR picture), nal_ref_idc: 2
  639. [h264 @ 0xaaab06199e60] nal_unit_type: 1(Coded slice of a non-IDR picture), nal_ref_idc: 2
  640. [h264 @ 0xaaab061b5410] nal_unit_type: 1(Coded slice of a non-IDR picture), nal_ref_idc: 0
  641. [h264 @ 0xaaab061d09c0] nal_unit_type: 1(Coded slice of a non-IDR picture), nal_ref_idc: 0
  642. [h264 @ 0xaaab060f2310] nal_unit_type: 1(Coded slice of a non-IDR picture), nal_ref_idc: 2
  643. [h264 @ 0xaaab061197d0] nal_unit_type: 1(Coded slice of a non-IDR picture), nal_ref_idc: 2
  644. [h264 @ 0xaaab0616c570] nal_unit_type: 1(Coded slice of a non-IDR picture), nal_ref_idc: 0
  645. [h264 @ 0xaaab0617eaf0] nal_unit_type: 1(Coded slice of a non-IDR picture), nal_ref_idc: 0
  646. [h264 @ 0xaaab06199e60] nal_unit_type: 1(Coded slice of a non-IDR picture), nal_ref_idc: 2
  647. [h264 @ 0xaaab061b5410] nal_unit_type: 1(Coded slice of a non-IDR picture), nal_ref_idc: 2
  648. [h264 @ 0xaaab061d09c0] nal_unit_type: 1(Coded slice of a non-IDR picture), nal_ref_idc: 0
  649. [h264 @ 0xaaab060f2310] nal_unit_type: 1(Coded slice of a non-IDR picture), nal_ref_idc: 2
  650. [h264 @ 0xaaab061197d0] nal_unit_type: 1(Coded slice of a non-IDR picture), nal_ref_idc: 2
  651. [h264 @ 0xaaab0616c570] nal_unit_type: 1(Coded slice of a non-IDR picture), nal_ref_idc: 0
  652. [h264 @ 0xaaab0617eaf0] nal_unit_type: 1(Coded slice of a non-IDR picture), nal_ref_idc: 2
  653. [h264 @ 0xaaab06199e60] nal_unit_type: 1(Coded slice of a non-IDR picture), nal_ref_idc: 2
  654. [h264 @ 0xaaab061b5410] nal_unit_type: 1(Coded slice of a non-IDR picture), nal_ref_idc: 0
  655. frame=  222 fps= 48 q=-0.0 size=N/A time=00:00:07.40 bitrate=N/A speed= 1.6x    
  656. [h264 @ 0xaaab061d09c0] nal_unit_type: 1(Coded slice of a non-IDR picture), nal_ref_idc: 0
  657. [h264 @ 0xaaab060f2310] nal_unit_type: 1(Coded slice of a non-IDR picture), nal_ref_idc: 2
  658. [h264 @ 0xaaab061197d0] nal_unit_type: 1(Coded slice of a non-IDR picture), nal_ref_idc: 2
  659. [h264 @ 0xaaab0616c570] nal_unit_type: 1(Coded slice of a non-IDR picture), nal_ref_idc: 0
  660. [h264 @ 0xaaab0617eaf0] nal_unit_type: 1(Coded slice of a non-IDR picture), nal_ref_idc: 0
  661. [h264 @ 0xaaab06199e60] nal_unit_type: 1(Coded slice of a non-IDR picture), nal_ref_idc: 2
  662. [h264 @ 0xaaab061b5410] nal_unit_type: 1(Coded slice of a non-IDR picture), nal_ref_idc: 2
  663. [h264 @ 0xaaab061d09c0] nal_unit_type: 1(Coded slice of a non-IDR picture), nal_ref_idc: 0
  664. [h264 @ 0xaaab060f2310] nal_unit_type: 1(Coded slice of a non-IDR picture), nal_ref_idc: 0
  665. [h264 @ 0xaaab061197d0] nal_unit_type: 1(Coded slice of a non-IDR picture), nal_ref_idc: 2
  666. [h264 @ 0xaaab0616c570] nal_unit_type: 1(Coded slice of a non-IDR picture), nal_ref_idc: 2
  667. [h264 @ 0xaaab0617eaf0] nal_unit_type: 1(Coded slice of a non-IDR picture), nal_ref_idc: 0
  668. [h264 @ 0xaaab06199e60] nal_unit_type: 1(Coded slice of a non-IDR picture), nal_ref_idc: 0
  669. [h264 @ 0xaaab061b5410] nal_unit_type: 1(Coded slice of a non-IDR picture), nal_ref_idc: 2
  670. [h264 @ 0xaaab061d09c0] nal_unit_type: 1(Coded slice of a non-IDR picture), nal_ref_idc: 2
  671. [h264 @ 0xaaab060f2310] nal_unit_type: 1(Coded slice of a non-IDR picture), nal_ref_idc: 0
  672. [h264 @ 0xaaab061197d0] nal_unit_type: 1(Coded slice of a non-IDR picture), nal_ref_idc: 0
  673. [h264 @ 0xaaab0616c570] nal_unit_type: 1(Coded slice of a non-IDR picture), nal_ref_idc: 2
  674. [h264 @ 0xaaab0617eaf0] nal_unit_type: 1(Coded slice of a non-IDR picture), nal_ref_idc: 2
  675. [h264 @ 0xaaab06199e60] nal_unit_type: 1(Coded slice of a non-IDR picture), nal_ref_idc: 0
  676. [h264 @ 0xaaab061b5410] nal_unit_type: 5(IDR), nal_ref_idc: 3
  677. [h264 @ 0xaaab061d09c0] nal_unit_type: 1(Coded slice of a non-IDR picture), nal_ref_idc: 2
  678. [h264 @ 0xaaab060f2310] nal_unit_type: 1(Coded slice of a non-IDR picture), nal_ref_idc: 2
  679. [h264 @ 0xaaab061197d0] nal_unit_type: 1(Coded slice of a non-IDR picture), nal_ref_idc: 0
  680. [h264 @ 0xaaab0616c570] nal_unit_type: 1(Coded slice of a non-IDR picture), nal_ref_idc: 0
  681. [h264 @ 0xaaab0617eaf0] nal_unit_type: 1(Coded slice of a non-IDR picture), nal_ref_idc: 2
  682. frame=  248 fps= 48 q=-0.0 size=N/A time=00:00:08.26 bitrate=N/A speed=1.61x    
  683. [h264 @ 0xaaab06199e60] nal_unit_type: 1(Coded slice of a non-IDR picture), nal_ref_idc: 2
  684. [h264 @ 0xaaab061b5410] nal_unit_type: 1(Coded slice of a non-IDR picture), nal_ref_idc: 0
  685. [h264 @ 0xaaab061d09c0] nal_unit_type: 1(Coded slice of a non-IDR picture), nal_ref_idc: 0
  686. [h264 @ 0xaaab060f2310] nal_unit_type: 1(Coded slice of a non-IDR picture), nal_ref_idc: 2
  687. [h264 @ 0xaaab061197d0] nal_unit_type: 1(Coded slice of a non-IDR picture), nal_ref_idc: 2
  688. [h264 @ 0xaaab0616c570] nal_unit_type: 1(Coded slice of a non-IDR picture), nal_ref_idc: 0
  689. [h264 @ 0xaaab0617eaf0] nal_unit_type: 1(Coded slice of a non-IDR picture), nal_ref_idc: 2
  690. [h264 @ 0xaaab06199e60] nal_unit_type: 1(Coded slice of a non-IDR picture), nal_ref_idc: 2
  691. [h264 @ 0xaaab061b5410] nal_unit_type: 1(Coded slice of a non-IDR picture), nal_ref_idc: 0
  692. [h264 @ 0xaaab061d09c0] nal_unit_type: 1(Coded slice of a non-IDR picture), nal_ref_idc: 0
  693. [h264 @ 0xaaab060f2310] nal_unit_type: 1(Coded slice of a non-IDR picture), nal_ref_idc: 2
  694. [h264 @ 0xaaab061197d0] nal_unit_type: 1(Coded slice of a non-IDR picture), nal_ref_idc: 2
  695. [h264 @ 0xaaab0616c570] nal_unit_type: 1(Coded slice of a non-IDR picture), nal_ref_idc: 0
  696. [h264 @ 0xaaab0617eaf0] nal_unit_type: 1(Coded slice of a non-IDR picture), nal_ref_idc: 0
  697. [h264 @ 0xaaab06199e60] nal_unit_type: 1(Coded slice of a non-IDR picture), nal_ref_idc: 2
  698. [h264 @ 0xaaab061b5410] nal_unit_type: 1(Coded slice of a non-IDR picture), nal_ref_idc: 2
  699. [h264 @ 0xaaab061d09c0] nal_unit_type: 1(Coded slice of a non-IDR picture), nal_ref_idc: 0
  700. [h264 @ 0xaaab060f2310] nal_unit_type: 1(Coded slice of a non-IDR picture), nal_ref_idc: 0
  701. [h264 @ 0xaaab061197d0] nal_unit_type: 1(Coded slice of a non-IDR picture), nal_ref_idc: 2
  702. [h264 @ 0xaaab0616c570] nal_unit_type: 1(Coded slice of a non-IDR picture), nal_ref_idc: 2
  703. [h264 @ 0xaaab0617eaf0] nal_unit_type: 1(Coded slice of a non-IDR picture), nal_ref_idc: 0
  704. [h264 @ 0xaaab06199e60] nal_unit_type: 1(Coded slice of a non-IDR picture), nal_ref_idc: 2
  705. [h264 @ 0xaaab061b5410] nal_unit_type: 1(Coded slice of a non-IDR picture), nal_ref_idc: 2
  706. [h264 @ 0xaaab061d09c0] nal_unit_type: 1(Coded slice of a non-IDR picture), nal_ref_idc: 0
  707. [h264 @ 0xaaab060f2310] nal_unit_type: 1(Coded slice of a non-IDR picture), nal_ref_idc: 0
  708. [h264 @ 0xaaab061197d0] nal_unit_type: 1(Coded slice of a non-IDR picture), nal_ref_idc: 2
  709. frame=  274 fps= 49 q=-0.0 size=N/A time=00:00:09.13 bitrate=N/A speed=1.62x    
  710. [h264 @ 0xaaab0616c570] nal_unit_type: 1(Coded slice of a non-IDR picture), nal_ref_idc: 2
  711. [h264 @ 0xaaab0617eaf0] nal_unit_type: 1(Coded slice of a non-IDR picture), nal_ref_idc: 0
  712. [h264 @ 0xaaab06199e60] nal_unit_type: 1(Coded slice of a non-IDR picture), nal_ref_idc: 0
  713. [h264 @ 0xaaab061b5410] nal_unit_type: 1(Coded slice of a non-IDR picture), nal_ref_idc: 2
  714. [h264 @ 0xaaab061d09c0] nal_unit_type: 1(Coded slice of a non-IDR picture), nal_ref_idc: 2
  715. [h264 @ 0xaaab060f2310] nal_unit_type: 1(Coded slice of a non-IDR picture), nal_ref_idc: 0
  716. [h264 @ 0xaaab061197d0] nal_unit_type: 1(Coded slice of a non-IDR picture), nal_ref_idc: 0
  717. [h264 @ 0xaaab0616c570] nal_unit_type: 1(Coded slice of a non-IDR picture), nal_ref_idc: 2
  718. [h264 @ 0xaaab0617eaf0] nal_unit_type: 1(Coded slice of a non-IDR picture), nal_ref_idc: 2
  719. [h264 @ 0xaaab06199e60] nal_unit_type: 1(Coded slice of a non-IDR picture), nal_ref_idc: 0
  720. [h264 @ 0xaaab061b5410] nal_unit_type: 1(Coded slice of a non-IDR picture), nal_ref_idc: 2
  721. [h264 @ 0xaaab061d09c0] nal_unit_type: 1(Coded slice of a non-IDR picture), nal_ref_idc: 2
  722. [h264 @ 0xaaab060f2310] nal_unit_type: 1(Coded slice of a non-IDR picture), nal_ref_idc: 0
  723. [h264 @ 0xaaab061197d0] nal_unit_type: 1(Coded slice of a non-IDR picture), nal_ref_idc: 0
  724. [h264 @ 0xaaab0616c570] nal_unit_type: 1(Coded slice of a non-IDR picture), nal_ref_idc: 2
  725. [h264 @ 0xaaab0617eaf0] nal_unit_type: 1(Coded slice of a non-IDR picture), nal_ref_idc: 2
  726. [h264 @ 0xaaab06199e60] nal_unit_type: 1(Coded slice of a non-IDR picture), nal_ref_idc: 0
  727. [h264 @ 0xaaab061b5410] nal_unit_type: 1(Coded slice of a non-IDR picture), nal_ref_idc: 0
  728. [out_0_0 @ 0xaaab061ed8d0] EOF on sink link out_0_0:default.
  729. No more output streams to write to, finishing.
  730. frame=  300 fps= 49 q=-0.0 Lsize=N/A time=00:00:10.00 bitrate=N/A speed=1.64x    
  731. video:2430000kB audio:0kB subtitle:0kB other streams:0kB global headers:0kB muxing overhead: unknown
  732. Input file #0 (/home/ruben/satahome/video/Jellyfish_1080_10s_30MB.mp4):
  733.   Input stream #0:0 (video): 300 packets read (31283396 bytes); 300 frames decoded;
  734.   Total: 300 packets (31283396 bytes) demuxed
  735. Output file #0 (/dev/fb0):
  736.   Output stream #0:0 (video): 300 frames encoded; 300 packets muxed (2488320000 bytes);
  737.   Total: 300 packets (2488320000 bytes) muxed
  738. 300 frames successfully decoded, 0 decoding errors
  739. [AVIOContext @ 0xaaab060f6030] Statistics: 31288184 bytes read, 0 seeks
RAW Paste Data
We use cookies for various purposes including analytics. By continuing to use Pastebin, you agree to our use of cookies as described in the Cookies Policy. OK, I Understand
Top