SHARE
TWEET

Untitled

mft39anton Jun 30th, 2019 77 Never
Not a member of Pastebin yet? Sign Up, it unlocks many cool features!
  1. DISC INFO:
  2.  
  3. Disc Title:     Kaili.Blues.2016.1080p.Blu-Ray.AVC.DTS-HD.MA.2.0-CHDBits
  4. Disc Size:      42,122,142,668 bytes
  5. Protection:     AACS
  6. BD-Java:        No
  7. BDInfo:         0.5.8
  8.  
  9. PLAYLIST REPORT:
  10.  
  11. Name:                   00000.MPLS
  12. Length:                 1:50:16.333 (h:m:s.ms)
  13. Size:                   33,665,426,496 bytes
  14. Total Bitrate:          40.71 Mbps
  15.  
  16. VIDEO:
  17.  
  18. Codec                   Bitrate             Description    
  19. -----                   -------             -----------    
  20. MPEG-4 AVC Video        36996 kbps          1080p / 24 fps / 16:9 / High Profile 4.1
  21.  
  22. AUDIO:
  23.  
  24. Codec                           Language        Bitrate         Description    
  25. -----                           --------        -------         -----------    
  26. DTS-HD Master Audio             Chinese         1671 kbps       2.0 / 48 kHz / 1671 kbps / 16-bit (DTS Core: 2.0 / 48 kHz / 1509 kbps / 16-bit)
  27.  
  28. SUBTITLES:
  29.  
  30. Codec                           Language        Bitrate         Description    
  31. -----                           --------        -------         -----------    
  32. Presentation Graphics           English         21.405 kbps                    
  33.  
  34. FILES:
  35.  
  36. Name            Time In         Length          Size            Total Bitrate  
  37. ----            -------         ------          ----            -------------  
  38. 00015.M2TS      0:00:00.000     0:00:14.916     75,892,992      40,589          
  39. 00004.M2TS      0:00:14.916     1:50:00.916     33,583,579,968  40,701          
  40. 00013.M2TS      1:50:15.833     0:00:00.500     5,953,536       95,257
RAW Paste Data
We use cookies for various purposes including analytics. By continuing to use Pastebin, you agree to our use of cookies as described in the Cookies Policy. OK, I Understand
 
Top