Guest User

Media Info

a guest
Feb 13th, 2020
312
Never
Not a member of Pastebin yet? Sign Up, it unlocks many cool features!
  1. Format : Matroska
  2. Format version : Version 4
  3. File size : 1.08 GiB
  4. Duration : 1 h 58 min
  5. Overall bit rate : 1 307 kb/s
  6. Movie name : Visit: MkvHub.Com
  7. Encoded date : UTC 2020-02-13 16:57:03
  8. Writing application : mkvmerge v10.0.0 ('To Drown In You') 64bit
  9. Writing library : libebml v1.3.4 + libmatroska v1.4.5
  10.  
  11. Video
  12. ID : 1
  13. Format : AVC
  14. Format/Info : Advanced Video Codec
  15. Format profile : High@L4
  16. Format settings : CABAC / 4 Ref Frames
  17. Format settings, CABAC : Yes
  18. Format settings, Reference : 4 frames
  19. Codec ID : V_MPEG4/ISO/AVC
  20. Duration : 1 h 58 min
  21. Bit rate : 1 100 kb/s
  22. Width : 1 280 pixels
  23. Height : 532 pixels
  24. Display aspect ratio : 2.40:1
  25. Frame rate mode : Constant
  26. Frame rate : 23.976 (24000/1001) FPS
  27. Color space : YUV
  28. Chroma subsampling : 4:2:0
  29. Bit depth : 8 bits
  30. Scan type : Progressive
  31. Bits/(Pixel*Frame) : 0.067
  32. Stream size : 921 MiB (83%)
  33. Title : MkvHub.Com
  34. Writing library : x264 core 142 r2479 dd79a61
  35. Encoding settings : cabac=1 / ref=3 / deblock=1:0:0 / analyse=0x3:0x113 / me=hex / subme=7 / psy=1 / psy_rd=1.00:0.00 / mixed_ref=1 / me_range=16 / chroma_me=1 / trellis=1 / 8x8dct=1 / cqm=0 / deadzone=21,11 / fast_pskip=1 / chroma_qp_offset=-2 / threads=72 / lookahead_threads=4 / sliced_threads=0 / nr=0 / decimate=1 / interlaced=0 / bluray_compat=0 / constrained_intra=0 / bframes=3 / b_pyramid=2 / b_adapt=1 / b_bias=0 / direct=1 / weightb=1 / open_gop=0 / weightp=2 / keyint=240 / keyint_min=24 / scenecut=40 / intra_refresh=0 / rc_lookahead=40 / rc=abr / mbtree=1 / bitrate=1100 / ratetol=1.0 / qcomp=0.60 / qpmin=0 / qpmax=69 / qpstep=4 / vbv_maxrate=25000 / vbv_bufsize=31250 / nal_hrd=none / filler=0 / ip_ratio=1.40 / aq=1:1.00
  36. Default : Yes
  37. Forced : No
  38. Color range : Limited
  39. Color primaries : BT.709
  40. Transfer characteristics : BT.709
  41. Matrix coefficients : BT.709
  42.  
  43. Audio #1
  44. ID : 2
  45. Format : AAC LC
  46. Format/Info : Advanced Audio Codec Low Complexity
  47. Codec ID : A_AAC-2
  48. Duration : 1 h 58 min
  49. Bit rate : 88.8 kb/s
  50. Channel(s) : 2 channels
  51. Channel layout : L R
  52. Sampling rate : 44.1 kHz
  53. Frame rate : 43.066 FPS (1024 SPF)
  54. Compression mode : Lossy
  55. Delay relative to video : -83 ms
  56. Stream size : 75.3 MiB (7%)
  57. Title : MkvHub.Com
  58. Language : Hindi
  59. Default : Yes
  60. Forced : Yes
  61.  
  62. Audio #2
  63. ID : 3
  64. Format : AAC LC
  65. Format/Info : Advanced Audio Codec Low Complexity
  66. Codec ID : A_AAC-2
  67. Duration : 1 h 58 min
  68. Bit rate : 128 kb/s
  69. Channel(s) : 2 channels
  70. Channel layout : L R
  71. Sampling rate : 48.0 kHz
  72. Frame rate : 46.875 FPS (1024 SPF)
  73. Compression mode : Lossy
  74. Delay relative to video : -21 ms
  75. Stream size : 109 MiB (10%)
  76. Title : MkvHub.Com
  77. Language : English
  78. Default : No
  79. Forced : No
  80.  
  81. Text
  82. ID : 4
  83. Format : UTF-8
  84. Codec ID : S_TEXT/UTF8
  85. Codec ID/Info : UTF-8 Plain Text
  86. Duration : 1 h 53 min
  87. Bit rate : 61 b/s
  88. Count of elements : 1745
  89. Stream size : 51.5 KiB (0%)
  90. Title : MkvHub.Com
  91. Language : English
  92. Default : Yes
  93. Forced : Yes
RAW Paste Data