HYBRID_BEING

[Saitei] Busou Shoujo Machiavellianism - 03 (720p) [9E2DD38F].mkv

May 16th, 2017
108
Never
Not a member of Pastebin yet? Sign Up, it unlocks many cool features!
  1. General
  2. Unique ID : 217523115451660248087007171283853243743 (0xA3A56D9C2FE3487FA4F7DB24BCA3F55F)
  3. Complete name : [Saitei] Busou Shoujo Machiavellianism - 03 (720p) [9E2DD38F].mkv
  4. Format : Matroska
  5. Format version : Version 4 / Version 2
  6. File size : 286 MiB
  7. Duration : 24mn 41s
  8. Overall bit rate : 1 621 Kbps
  9. Encoded date : UTC 2017-04-23 12:24:34
  10. Writing application : mkvmerge v8.3.0 ('Over the Horizon') 64bit
  11. Writing library : libebml v1.3.1 + libmatroska v1.4.2
  12. Attachments : TODAYSHOPMEDIUM.TTF / AFTON.TTF / ADOBESONGSTD-LIGHT.OTF / ALBERTA_REGULAR.TTF / A-OTF KAISHO MCBK1 PRO.TTF / DFPSNGyosho-W5-CP-Spec (2).ttf / Frostys Winterland.TTF
  13.  
  14. Video
  15. ID : 1
  16. Format : AVC
  17. Format/Info : Advanced Video Codec
  18. Format profile : High 10@L5
  19. Format settings, CABAC : Yes
  20. Format settings, ReFrames : 16 frames
  21. Codec ID : V_MPEG4/ISO/AVC
  22. Duration : 24mn 41s
  23. Bit rate : 1 365 Kbps
  24. Width : 1 280 pixels
  25. Height : 720 pixels
  26. Display aspect ratio : 16:9
  27. Frame rate mode : Constant
  28. Frame rate : 23.976 (24000/1001) fps
  29. Color space : YUV
  30. Chroma subsampling : 4:2:0
  31. Bit depth : 10 bits
  32. Scan type : Progressive
  33. Bits/(Pixel*Frame) : 0.062
  34. Stream size : 241 MiB (84%)
  35. Writing library : x264 core 148 r2762+56 6284cf3 t_mod_Custom [10-bit@all X86_64]
  36. Encoding settings : cabac=1 / ref=16 / deblock=1:0:0 / analyse=0x3:0x133 / me=umh / subme=10 / psy=1 / fade_compensate=0.70 / psy_rd=0.60:0.15 / mixed_ref=1 / me_range=24 / chroma_me=1 / trellis=2 / 8x8dct=1 / cqm=0 / deadzone=21,11 / fast_pskip=1 / chroma_qp_offset=-3 / threads=12 / lookahead_threads=1 / sliced_threads=0 / nr=0 / decimate=1 / interlaced=0 / bluray_compat=0 / constrained_intra=0 / fgo=0 / bframes=5 / b_pyramid=2 / b_adapt=2 / b_bias=0 / direct=3 / weightb=1 / open_gop=0 / weightp=2 / keyint=250 / keyint_min=23 / scenecut=40 / intra_refresh=0 / rc_lookahead=60 / rc=crf / mbtree=1 / crf=18.0000 / qcomp=0.70 / qpmin=0:0:0 / qpmax=81:81:81 / qpstep=4 / ip_ratio=1.40 / aq=3:0.80 / aq-sensitivity=10.00 / aq-factor=1.00:1.00:1.00 / aq2=0 / aq3=0
  37. Default : Yes
  38. Forced : No
  39.  
  40. Audio
  41. ID : 2
  42. Format : E-AC-3
  43. Format/Info : Audio Coding 3
  44. Format settings, Endianness : Big
  45. Codec ID : A_EAC3
  46. Duration : 24mn 41s
  47. Bit rate mode : Constant
  48. Bit rate : 224 Kbps
  49. Channel(s) : 2 channels
  50. Channel positions : Front: L R
  51. Sampling rate : 48.0 KHz
  52. Frame rate : 187.500 fps (256 spf)
  53. Compression mode : Lossy
  54. Stream size : 39.5 MiB (14%)
  55. Language : Japanese
  56. Default : Yes
  57. Forced : No
  58.  
  59. Text
  60. ID : 3
  61. Format : ASS
  62. Codec ID : S_TEXT/ASS
  63. Codec ID/Info : Advanced Sub Station Alpha
  64. Compression mode : Lossless
  65. Title : Saitei
  66. Language : English
  67. Default : Yes
  68. Forced : No
  69.  
  70. Menu
  71. 00:00:00.000 : :(unnamed)
  72. 00:01:17.035 : :(unnamed)
  73. 00:02:47.042 : :(unnamed)
  74. 00:11:00.076 : :(unnamed)
  75. 00:21:56.190 : :(unnamed)
  76. 00:23:26.030 : :(unnamed)
RAW Paste Data