GrabHD

Untitled

Feb 23rd, 2020
80
Never
Not a member of Pastebin yet? Sign Up, it unlocks many cool features!
  1. Общее
  2. Уникальный идентификатор : 173424051988944483271829579789716992931 (0x827841EA39BB3713BECECA4971A8B3A3)
  3. Полное имя : D:\Кинозал\Brexit.The.Uncivil.War.2019.1080p_BDRip_[scarabey.org].mkv
  4. Формат : Matroska
  5. Версия формата : Version 4 / Version 2
  6. Размер файла : 10,0 Гбайт
  7. Продолжительность : 1 ч. 32 м.
  8. Общий поток : 15,5 Мбит/сек
  9. Название фильма : Brexit: The Uncivil War
  10. Дата кодирования : UTC 2020-02-23 16:39:59
  11. Программа кодирования : mkvmerge v6.1.0 ('Old Devil') built on Mar 4 2013 09:10:42
  12. Библиотека кодирования : libebml v1.3.0 + libmatroska v1.4.0
  13.  
  14. Видео
  15. Идентификатор : 1
  16. Формат : AVC
  17. Формат/Информация : Advanced Video Codec
  18. Профиль формата : High@L4.1
  19. Настройки формата : CABAC / 4 Ref Frames
  20. Параметр CABAC формата : Да
  21. Параметр RefFrames формата : 4 кадра
  22. Идентификатор кодека : V_MPEG4/ISO/AVC
  23. Продолжительность : 1 ч. 32 м.
  24. Битрейт : 14,6 Мбит/сек
  25. Ширина : 1920 пикселей
  26. Высота : 1080 пикселей
  27. Соотношение сторон : 16:9
  28. Режим частоты кадров : Постоянный
  29. Частота кадров : 25,000 кадров/сек
  30. Цветовое пространство : YUV
  31. Субдискретизация насыщенности : 4:2:0
  32. Битовая глубина : 8 бит
  33. Тип развёртки : Прогрессивная
  34. Бит/(Пиксели*Кадры) : 0.282
  35. Размер потока : 9,46 Гбайт (94%)
  36. Библиотека кодирования : x264 core 158 r2988+50 ~ Encoded by Mocunaman in Portugal
  37. Настройки программы : cabac=1 / ref=4 / deblock=1:-3:-3 / analyse=0x3:0x113 / me=umh / subme=10 / psy=1 / fade_compensate=0.00 / psy_rd=1.00:0.00 / mixed_ref=1 / me_range=32 / chroma_me=1 / trellis=2 / 8x8dct=1 / cqm=0 / deadzone=21,11 / fast_pskip=0 / chroma_qp_offset=-2 / threads=34 / lookahead_threads=8 / sliced_threads=0 / nr=0 / decimate=0 / interlaced=0 / bluray_compat=0 / constrained_intra=0 / fgo=0 / bframes=10 / b_pyramid=2 / b_adapt=2 / b_bias=0 / direct=3 / weightb=1 / open_gop=0 / weightp=2 / keyint=250 / keyint_min=25 / scenecut=40 / intra_refresh=0 / rc_lookahead=60 / rc=crf / mbtree=0 / crf=17.0000 / qcomp=0.60 / qpmin=0:0:0 / qpmax=69:69:69 / qpstep=4 / vbv_maxrate=62500 / vbv_bufsize=78125 / crf_max=0.0 / nal_hrd=none / filler=0 / ip_ratio=1.30 / pb_ratio=1.20 / aq=3:0.80 / aq-sensitivity=10.00 / aq-factor=1.00:1.00:1.00 / aq2=0 / aq3=0
  38. Язык : English
  39. Default : Да
  40. Forced : Нет
  41. Цветовой диапазон : Limited
  42. Основные цвета : BT.709
  43. Характеристики трансфера : BT.709
  44. Коэффициенты матрицы : BT.709
  45.  
  46. Аудио #1
  47. Идентификатор : 2
  48. Формат : AC-3
  49. Формат/Информация : Audio Coding 3
  50. Параметр Endianness формата : Big
  51. Идентификатор кодека : A_AC3
  52. Продолжительность : 1 ч. 32 м.
  53. Вид битрейта : Постоянный
  54. Битрейт : 384 Кбит/сек
  55. Каналы : 6 каналов
  56. Расположение каналов : Front: L C R, Side: L R, LFE
  57. Частота : 48,0 КГц
  58. Частота кадров : 31,250 кадров/сек (1536 SPF)
  59. Битовая глубина : 16 бит
  60. Метод сжатия : С потерями
  61. Размер потока : 254 Мбайт (2%)
  62. Заголовок : SDI
  63. Язык : Russian
  64. ServiceKind/String : Complete Main
  65. Default : Да
  66. Forced : Нет
  67.  
  68. Аудио #2
  69. Идентификатор : 3
  70. Формат : AC-3
  71. Формат/Информация : Audio Coding 3
  72. Параметр Endianness формата : Big
  73. Идентификатор кодека : A_AC3
  74. Продолжительность : 1 ч. 32 м.
  75. Вид битрейта : Постоянный
  76. Битрейт : 192 Кбит/сек
  77. Каналы : 2 канала
  78. Расположение каналов : Front: L R
  79. Частота : 48,0 КГц
  80. Частота кадров : 31,250 кадров/сек (1536 SPF)
  81. Битовая глубина : 16 бит
  82. Метод сжатия : С потерями
  83. Размер потока : 127 Мбайт (1%)
  84. Заголовок : NS
  85. Язык : Russian
  86. ServiceKind/String : Complete Main
  87. Default : Нет
  88. Forced : Нет
  89.  
  90. Текст
  91. Идентификатор : 4
  92. Формат : UTF-8
  93. Идентификатор кодека : S_TEXT/UTF8
  94. Идентификатор кодека/Информация : UTF-8 Plain Text
  95. Заголовок : русские, форсированные
  96. Язык : Russian
  97. Default : Да
  98. Forced : Нет
  99.  
  100. Меню
  101. 00:00:00.000 : en:Chapter 01
  102. 00:03:40.720 : en:Chapter 02
  103. 00:08:59.680 : en:Chapter 03
  104. 00:13:48.000 : en:Chapter 04
  105. 00:19:00.400 : en:Chapter 05
  106. 00:26:25.920 : en:Chapter 06
  107. 00:28:22.760 : en:Chapter 07
  108. 00:35:38.400 : en:Chapter 08
  109. 00:41:21.400 : en:Chapter 09
  110. 00:48:45.480 : en:Chapter 10
  111. 00:51:56.160 : en:Chapter 11
  112. 00:59:19.800 : en:Chapter 12
  113. 01:07:41.960 : en:Chapter 13
  114. 01:14:57.160 : en:Chapter 14
  115. 01:21:55.080 : en:Chapter 15
  116. 01:30:23.960 : en:Chapter 16
RAW Paste Data