SHARE
TWEET

Untitled

a guest Jun 6th, 2019 7 Never
Not a member of Pastebin yet? Sign Up, it unlocks many cool features!
  1. General
  2. Unique ID                      : 311292810924118780137587589135114444306 (0xEA30D089D48E65C5792AF29F82641E12)
  3. Complete name                  : C:\Users\MYNAME\Desktop\XXXX\MOVIE - UHD-4K-2160p-Blu-ray-Lossless - 5-5.mkv
  4. Format                         : Matroska
  5. Format version                 : Version 4
  6. File size                      : 12.2 GiB
  7. Duration                       : 20 min 48 s
  8. Overall bit rate mode          : Variable
  9. Overall bit rate               : 84.2 Mb/s
  10. Movie name                     : Batman Forever
  11. Encoded date                   : UTC 2019-06-06 04:08:16
  12. Writing application            : mkvmerge v34.0.0 ('Sight and Seen') 64-bit
  13. Writing library                : libebml v1.3.7 + libmatroska v1.5.0
  14.  
  15. Video
  16. ID                             : 1
  17. Format                         : HEVC
  18. Format/Info                    : High Efficiency Video Coding
  19. Format profile                 : Main 10@L5.1@High
  20. HDR format                     : SMPTE ST 2086, HDR10 compatible
  21. Codec ID                       : V_MPEGH/ISO/HEVC
  22. Duration                       : 20 min 48 s
  23. Bit rate                       : 78.4 Mb/s
  24. Width                          : 3 840 pixels
  25. Height                         : 2 160 pixels
  26. Display aspect ratio           : 16:9
  27. Frame rate mode                : Constant
  28. Frame rate                     : 23.976 (24000/1001) FPS
  29. Color space                    : YUV
  30. Chroma subsampling             : 4:2:0 (Type 2)
  31. Bit depth                      : 10 bits
  32. Bits/(Pixel*Frame)             : 0.394
  33. Stream size                    : 11.4 GiB (93%)
  34. Writing library                : ATEME Titan File 3.9.0 (4.9.0.0)        
  35. Language                       : English
  36. Default                        : Yes
  37. Forced                         : No
  38. Color range                    : Limited
  39. Color primaries                : BT.2020
  40. Transfer characteristics       : PQ
  41. Matrix coefficients            : BT.2020 non-constant
  42. Mastering display color primar : Display P3
  43. Mastering display luminance    : min: 0.0050 cd/m2, max: 4000 cd/m2
  44. Maximum Content Light Level    : 1353 cd/m2
  45. Maximum Frame-Average Light Le : 135 cd/m2
  46.  
  47. Audio #1
  48. ID                             : 2
  49. Format                         : MLP FBA 16-ch
  50. Format/Info                    : Meridian Lossless Packing FBA with 16-channel presentation
  51. Commercial name                : Dolby TrueHD with Dolby Atmos
  52. Codec ID                       : A_TRUEHD
  53. Duration                       : 20 min 48 s
  54. Bit rate mode                  : Variable
  55. Bit rate                       : 4 426 kb/s
  56. Maximum bit rate               : 7 242 kb/s
  57. Channel(s)                     : 8 channels
  58. Channel layout                 : L R C LFE Ls Rs Lb Rb
  59. Sampling rate                  : 48.0 kHz
  60. Frame rate                     : 1 200.000 FPS (40 SPF)
  61. Compression mode               : Lossless
  62. Stream size                    : 658 MiB (5%)
  63. Title                          : Dolby Atmos
  64. Language                       : English
  65. Default                        : Yes
  66. Forced                         : No
  67. Number of dynamic objects      : 15
  68. Bed channel count              : 1 channel
  69. Bed channel configuration      : LFE
  70.  
  71. Audio #2
  72. ID                             : 3
  73. Format                         : AC-3
  74. Format/Info                    : Audio Coding 3
  75. Commercial name                : Dolby Digital
  76. Codec ID                       : A_AC3
  77. Duration                       : 20 min 48 s
  78. Bit rate mode                  : Constant
  79. Bit rate                       : 448 kb/s
  80. Channel(s)                     : 6 channels
  81. Channel layout                 : L R C LFE Ls Rs
  82. Sampling rate                  : 48.0 kHz
  83. Frame rate                     : 31.250 FPS (1536 SPF)
  84. Bit depth                      : 16 bits
  85. Compression mode               : Lossy
  86. Delay relative to video        : 20 ms
  87. Stream size                    : 66.7 MiB (1%)
  88. Title                          : DD 5.1
  89. Language                       : English
  90. Service kind                   : Complete Main
  91. Default                        : No
  92. Forced                         : No
  93.  
  94. Audio #3
  95. ID                             : 4
  96. Format                         : AC-3
  97. Format/Info                    : Audio Coding 3
  98. Commercial name                : Dolby Digital
  99. Codec ID                       : A_AC3
  100. Duration                       : 20 min 48 s
  101. Bit rate mode                  : Constant
  102. Bit rate                       : 448 kb/s
  103. Channel(s)                     : 6 channels
  104. Channel layout                 : L R C LFE Ls Rs
  105. Sampling rate                  : 48.0 kHz
  106. Frame rate                     : 31.250 FPS (1536 SPF)
  107. Bit depth                      : 16 bits
  108. Compression mode               : Lossy
  109. Delay relative to video        : 20 ms
  110. Stream size                    : 66.7 MiB (1%)
  111. Title                          : DD 5.1
  112. Language                       : English
  113. Service kind                   : Complete Main
  114. Default                        : No
  115. Forced                         : No
  116.  
  117. Audio #4
  118. ID                             : 5
  119. Format                         : AC-3
  120. Format/Info                    : Audio Coding 3
  121. Commercial name                : Dolby Digital
  122. Codec ID                       : A_AC3
  123. Duration                       : 20 min 47 s
  124. Bit rate mode                  : Constant
  125. Bit rate                       : 192 kb/s
  126. Channel(s)                     : 2 channels
  127. Channel layout                 : L R
  128. Sampling rate                  : 48.0 kHz
  129. Frame rate                     : 31.250 FPS (1536 SPF)
  130. Bit depth                      : 16 bits
  131. Compression mode               : Lossy
  132. Delay relative to video        : 20 ms
  133. Stream size                    : 28.6 MiB (0%)
  134. Title                          : Dublagem clássica
  135. Language                       : Portuguese
  136. Service kind                   : Complete Main
  137. Default                        : No
  138. Forced                         : No
  139.  
  140. Audio #5
  141. ID                             : 6
  142. Format                         : AC-3
  143. Format/Info                    : Audio Coding 3
  144. Commercial name                : Dolby Digital
  145. Codec ID                       : A_AC3
  146. Duration                       : 20 min 48 s
  147. Bit rate mode                  : Constant
  148. Bit rate                       : 192 kb/s
  149. Channel(s)                     : 2 channels
  150. Channel layout                 : L R
  151. Sampling rate                  : 48.0 kHz
  152. Frame rate                     : 31.250 FPS (1536 SPF)
  153. Bit depth                      : 16 bits
  154. Compression mode               : Lossy
  155. Delay relative to video        : 20 ms
  156. Stream size                    : 28.6 MiB (0%)
  157. Title                          : Comentários
  158. Language                       : English
  159. Service kind                   : Complete Main
  160. Default                        : No
  161. Forced                         : No
  162.  
  163. Text #1
  164. ID                             : 7
  165. Format                         : UTF-8
  166. Codec ID                       : S_TEXT/UTF8
  167. Codec ID/Info                  : UTF-8 Plain Text
  168. Duration                       : 16 min 11 s
  169. Bit rate                       : 28 b/s
  170. Count of elements              : 149
  171. Stream size                    : 3.39 KiB (0%)
  172. Language                       : English
  173. Default                        : Yes
  174. Forced                         : No
  175.  
  176. Text #2
  177. ID                             : 8
  178. Format                         : PGS
  179. Muxing mode                    : zlib
  180. Codec ID                       : S_HDMV/PGS
  181. Codec ID/Info                  : Picture based subtitle format used on BDs/HD-DVDs
  182. Duration                       : 16 min 12 s
  183. Bit rate                       : 20.0 kb/s
  184. Count of elements              : 346
  185. Stream size                    : 2.31 MiB (0%)
  186. Title                          : CC
  187. Language                       : English
  188. Default                        : No
  189. Forced                         : No
  190.  
  191. Text #3
  192. ID                             : 9
  193. Format                         : PGS
  194. Muxing mode                    : zlib
  195. Codec ID                       : S_HDMV/PGS
  196. Codec ID/Info                  : Picture based subtitle format used on BDs/HD-DVDs
  197. Duration                       : 20 min 43 s
  198. Bit rate                       : 11.8 kb/s
  199. Count of elements              : 276
  200. Stream size                    : 1.75 MiB (0%)
  201. Language                       : Portuguese
  202. Default                        : No
  203. Forced                         : No
  204.  
  205. Menu
  206. 00:00:00.000                   : en:Chapter 31
  207. 00:00:23.690                   : en:Chapter 32
  208. 00:02:06.292                   : en:Chapter 33
  209. 00:04:11.292                   : en:Chapter 34
  210. 00:11:48.165                   : en:Chapter 35
  211. 00:12:57.443                   : en:Chapter 36
  212. 00:13:54.666                   : en:Chapter 37
  213. 00:15:16.206                   : en:Chapter 38
  214. 00:16:45.712                   : en:Chapter 39
RAW Paste Data
We use cookies for various purposes including analytics. By continuing to use Pastebin, you agree to our use of cookies as described in the Cookies Policy. OK, I Understand
 
Top