daily pastebin goal
24%
SHARE
TWEET

Untitled

a guest Jan 12th, 2018 49 Never
Not a member of Pastebin yet? Sign Up, it unlocks many cool features!
  1. X Lossless Decoder version 20110924 (136.3)
  2.  
  3. XLD extraction logfile from 2011-10-07 17:25:14 +0100
  4.  
  5. Various Artists / The Greatest Party Album Under The Sun [Disc 2]
  6.  
  7. Used drive : MATSHITA DVD-R   UJ-898 (revision HE13)
  8.  
  9. Ripper mode             : XLD Secure Ripper
  10. Disable audio cache     : OK for the drive with a cache less than 1375KiB
  11. Make use of C2 pointers : NO
  12. Read offset correction  : 102
  13. Max retry count         : 20
  14. Gap status              : Analyzed, Appended
  15.  
  16. TOC of the extracted CD
  17.      Track |   Start  |  Length  | Start sector | End sector
  18.     ---------------------------------------------------------
  19.         1  | 00:00:00 | 02:49:10 |         0    |    12684  
  20.         2  | 02:49:10 | 04:48:00 |     12685    |    34284  
  21.         3  | 07:37:10 | 03:59:30 |     34285    |    52239  
  22.         4  | 11:36:40 | 03:07:15 |     52240    |    66279  
  23.         5  | 14:43:55 | 03:14:47 |     66280    |    80876  
  24.         6  | 17:58:27 | 04:04:13 |     80877    |    99189  
  25.         7  | 22:02:40 | 02:00:40 |     99190    |   108229  
  26.         8  | 24:03:05 | 02:47:40 |    108230    |   120794  
  27.         9  | 26:50:45 | 03:11:22 |    120795    |   135141  
  28.        10  | 30:01:67 | 04:09:23 |    135142    |   153839  
  29.        11  | 34:11:15 | 03:55:40 |    153840    |   171504  
  30.        12  | 38:06:55 | 02:51:20 |    171505    |   184349  
  31.        13  | 40:58:00 | 04:31:12 |    184350    |   204686  
  32.        14  | 45:29:12 | 03:58:48 |    204687    |   222584  
  33.        15  | 49:27:60 | 04:01:70 |    222585    |   240729  
  34.        16  | 53:29:55 | 03:59:35 |    240730    |   258689  
  35.        17  | 57:29:15 | 04:08:35 |    258690    |   277324  
  36.        18  | 61:37:50 | 04:09:30 |    277325    |   296029  
  37.        19  | 65:47:05 | 03:19:10 |    296030    |   310964  
  38.        20  | 69:06:15 | 02:38:15 |    310965    |   322829  
  39.  
  40. List of alternate offset correction values
  41.         #  | Absolute | Relative | Confidence
  42.     ------------------------------------------
  43.         1  |  -1668   |  -1770   |      2    
  44.  
  45. AccurateRip Summary
  46.     Track 01 : OK (confidence 5)
  47.     Track 02 : OK (confidence 6)
  48.     Track 03 : OK (confidence 5)
  49.     Track 04 : OK (confidence 6)
  50.     Track 05 : OK (confidence 7)
  51.     Track 06 : OK (confidence 6)
  52.     Track 07 : OK (confidence 6)
  53.     Track 08 : OK (confidence 6)
  54.     Track 09 : OK (confidence 7)
  55.     Track 10 : OK (confidence 6)
  56.     Track 11 : OK (confidence 7)
  57.     Track 12 : OK (confidence 7)
  58.     Track 13 : OK (confidence 5)
  59.     Track 14 : OK (confidence 5)
  60.     Track 15 : OK (confidence 6)
  61.     Track 16 : OK (confidence 6)
  62.     Track 17 : OK (confidence 5)
  63.     Track 18 : OK (confidence 5)
  64.     Track 19 : OK (confidence 5)
  65.     Track 20 : OK (confidence 5)
  66.         ->All tracks accurately ripped.
  67.  
  68. All Tracks
  69.     Album gain             : -4.62 dB
  70.     Peak                   : 0.979980
  71.     Statistics
  72.         Read error                           : 0
  73.         Jitter error (maybe fixed)           : 0
  74.         Retry sector count                   : 1
  75.         Damaged sector count                 : 0
  76.  
  77. Track 01
  78.     Filename : /Users/callumacrae/Desktop/Compilations - The Greatest Party Album Under The Sun [Disc 2] (1990) [FLAC]/01 - Cher - The Shoop Shoop Song (It's In His Kiss).flac
  79.     Pre-gap length : 00:02:00
  80.  
  81.     Track gain             : -4.30 dB
  82.     Peak                   : 0.968903
  83.     CRC32 hash (test run)  : F79090F2
  84.     CRC32 hash             : F79090F2
  85.     CRC32 hash (skip zero) : DB1757AA
  86.     AccurateRip signature  : 6B5DBEBA
  87.         ->Accurately ripped! (confidence 5)
  88.     Statistics
  89.         Read error                           : 0
  90.         Jitter error (maybe fixed)           : 0
  91.         Retry sector count                   : 0
  92.         Damaged sector count                 : 0
  93.  
  94. Track 02
  95.     Filename : /Users/callumacrae/Desktop/Compilations - The Greatest Party Album Under The Sun [Disc 2] (1990) [FLAC]/02 - Olivia Newton-John & John Travolta - Grease Megamix.flac
  96.  
  97.     Track gain             : -3.89 dB
  98.     Peak                   : 0.960938
  99.     CRC32 hash (test run)  : 7709A4A1
  100.     CRC32 hash             : 7709A4A1
  101.     CRC32 hash (skip zero) : CD6E6924
  102.     AccurateRip signature  : 6CA0BA8F
  103.         ->Accurately ripped! (confidence 6)
  104.     Statistics
  105.         Read error                           : 0
  106.         Jitter error (maybe fixed)           : 0
  107.         Retry sector count                   : 0
  108.         Damaged sector count                 : 0
  109.  
  110. Track 03
  111.     Filename : /Users/callumacrae/Desktop/Compilations - The Greatest Party Album Under The Sun [Disc 2] (1991) [FLAC]/03 - The Commitments - Mustang Sally.flac
  112.  
  113.     Track gain             : -3.18 dB
  114.     Peak                   : 0.979980
  115.     CRC32 hash (test run)  : FD6D9D1B
  116.     CRC32 hash             : FD6D9D1B
  117.     CRC32 hash (skip zero) : C6163931
  118.     AccurateRip signature  : 77EB8536
  119.         ->Accurately ripped! (confidence 5)
  120.     Statistics
  121.         Read error                           : 0
  122.         Jitter error (maybe fixed)           : 0
  123.         Retry sector count                   : 0
  124.         Damaged sector count                 : 0
  125.  
  126. Track 04
  127.     Filename : /Users/callumacrae/Desktop/Compilations - The Greatest Party Album Under The Sun [Disc 2] (1995) [FLAC]/04 - EMF Feat. Reeves & Mortimer - I'm A Believer.flac
  128.  
  129.     Track gain             : -6.76 dB
  130.     Peak                   : 0.799194
  131.     CRC32 hash (test run)  : 569D34F7
  132.     CRC32 hash             : 569D34F7
  133.     CRC32 hash (skip zero) : 92716EE9
  134.     AccurateRip signature  : ED75517A
  135.         ->Accurately ripped! (confidence 6)
  136.     Statistics
  137.         Read error                           : 0
  138.         Jitter error (maybe fixed)           : 0
  139.         Retry sector count                   : 0
  140.         Damaged sector count                 : 0
  141.  
  142. Track 05
  143.     Filename : /Users/callumacrae/Desktop/Compilations - The Greatest Party Album Under The Sun [Disc 2] (1984) [FLAC]/05 - The Bluebells - Young At Heart.flac
  144.  
  145.     Track gain             : -4.12 dB
  146.     Peak                   : 0.842712
  147.     CRC32 hash (test run)  : 14CFE531
  148.     CRC32 hash             : 14CFE531
  149.     CRC32 hash (skip zero) : 9BD3BABA
  150.     AccurateRip signature  : 98744C56
  151.         ->Accurately ripped! (confidence 7)
  152.     Statistics
  153.         Read error                           : 0
  154.         Jitter error (maybe fixed)           : 0
  155.         Retry sector count                   : 0
  156.         Damaged sector count                 : 0
  157.  
  158. Track 06
  159.     Filename : /Users/callumacrae/Desktop/Compilations - The Greatest Party Album Under The Sun [Disc 2] (1982) [FLAC]/06 - Dexys Midnight Runners - Come On Eileen.flac
  160.  
  161.     Track gain             : -2.04 dB
  162.     Peak                   : 0.777924
  163.     CRC32 hash (test run)  : 099849CF
  164.     CRC32 hash             : 099849CF
  165.     CRC32 hash (skip zero) : A6E34410
  166.     AccurateRip signature  : D09C27BB
  167.         ->Accurately ripped! (confidence 6)
  168.     Statistics
  169.         Read error                           : 0
  170.         Jitter error (maybe fixed)           : 0
  171.         Retry sector count                   : 0
  172.         Damaged sector count                 : 0
  173.  
  174. Track 07
  175.     Filename : /Users/callumacrae/Desktop/Compilations - The Greatest Party Album Under The Sun [Disc 2] (1979) [FLAC]/07 - Madness - One Step Beyond.flac
  176.  
  177.     Track gain             : -6.81 dB
  178.     Peak                   : 0.979218
  179.     CRC32 hash (test run)  : 01ADC4AF
  180.     CRC32 hash             : 01ADC4AF
  181.     CRC32 hash (skip zero) : 4E82EFDA
  182.     AccurateRip signature  : DDADED92
  183.         ->Accurately ripped! (confidence 6)
  184.     Statistics
  185.         Read error                           : 0
  186.         Jitter error (maybe fixed)           : 0
  187.         Retry sector count                   : 0
  188.         Damaged sector count                 : 0
  189.  
  190. Track 08
  191.     Filename : /Users/callumacrae/Desktop/Compilations - The Greatest Party Album Under The Sun [Disc 2] (1981) [FLAC]/08 - Bad Manners - Can Can.flac
  192.  
  193.     Track gain             : -5.06 dB
  194.     Peak                   : 0.979919
  195.     CRC32 hash (test run)  : 447A7AE9
  196.     CRC32 hash             : 447A7AE9
  197.     CRC32 hash (skip zero) : E3DA2A6B
  198.     AccurateRip signature  : 57676DE1
  199.         ->Accurately ripped! (confidence 6)
  200.     Statistics
  201.         Read error                           : 0
  202.         Jitter error (maybe fixed)           : 0
  203.         Retry sector count                   : 0
  204.         Damaged sector count                 : 0
  205.  
  206. Track 09
  207.     Filename : /Users/callumacrae/Desktop/Compilations - The Greatest Party Album Under The Sun [Disc 2] (1993) [FLAC]/09 - Shaggy - Oh Carolina.flac
  208.  
  209.     Track gain             : -6.62 dB
  210.     Peak                   : 0.979980
  211.     CRC32 hash (test run)  : F25F6EA0
  212.     CRC32 hash             : F25F6EA0
  213.     CRC32 hash (skip zero) : E8F786D3
  214.     AccurateRip signature  : F3409DCF
  215.         ->Accurately ripped! (confidence 7)
  216.     Statistics
  217.         Read error                           : 0
  218.         Jitter error (maybe fixed)           : 0
  219.         Retry sector count                   : 0
  220.         Damaged sector count                 : 0
  221.  
  222. Track 10
  223.     Filename : /Users/callumacrae/Desktop/Compilations - The Greatest Party Album Under The Sun [Disc 2] (1994) [FLAC]/10 - Ini Kamoze - Here Comes The Hotstepper.flac
  224.  
  225.     Track gain             : -1.60 dB
  226.     Peak                   : 0.741241
  227.     CRC32 hash (test run)  : F019A3A3
  228.     CRC32 hash             : F019A3A3
  229.     CRC32 hash (skip zero) : D6112A3A
  230.     AccurateRip signature  : 9E635F62
  231.         ->Accurately ripped! (confidence 6)
  232.     Statistics
  233.         Read error                           : 0
  234.         Jitter error (maybe fixed)           : 0
  235.         Retry sector count                   : 0
  236.         Damaged sector count                 : 0
  237.  
  238. Track 11
  239.     Filename : /Users/callumacrae/Desktop/Compilations - The Greatest Party Album Under The Sun [Disc 2] (1993) [FLAC]/11 - Chaka Demus & Pliers - Twist And Shout.flac
  240.  
  241.     Track gain             : -4.91 dB
  242.     Peak                   : 0.854218
  243.     CRC32 hash (test run)  : 24762911
  244.     CRC32 hash             : 24762911
  245.     CRC32 hash (skip zero) : F369E68E
  246.     AccurateRip signature  : 232E687D
  247.         ->Accurately ripped! (confidence 7)
  248.     Statistics
  249.         Read error                           : 0
  250.         Jitter error (maybe fixed)           : 0
  251.         Retry sector count                   : 0
  252.         Damaged sector count                 : 0
  253.  
  254. Track 12
  255.     Filename : /Users/callumacrae/Desktop/Compilations - The Greatest Party Album Under The Sun [Disc 2] (1991) [FLAC]/12 - Right Said Fred - I'm Too Sexy.flac
  256.  
  257.     Track gain             : -2.62 dB
  258.     Peak                   : 0.979980
  259.     CRC32 hash (test run)  : 5840897C
  260.     CRC32 hash             : 5840897C
  261.     CRC32 hash (skip zero) : ECA84F90
  262.     AccurateRip signature  : 4C922FA4
  263.         ->Accurately ripped! (confidence 7)
  264.     Statistics
  265.         Read error                           : 0
  266.         Jitter error (maybe fixed)           : 0
  267.         Retry sector count                   : 0
  268.         Damaged sector count                 : 0
  269.  
  270. Track 13
  271.     Filename : /Users/callumacrae/Desktop/Compilations - The Greatest Party Album Under The Sun [Disc 2] (1989) [FLAC]/13 - Black Box - Ride On Time.flac
  272.  
  273.     Track gain             : -1.84 dB
  274.     Peak                   : 0.979980
  275.     CRC32 hash (test run)  : 466068B2
  276.     CRC32 hash             : 466068B2
  277.     CRC32 hash (skip zero) : 2A5D131D
  278.     AccurateRip signature  : 4040424B
  279.         ->Accurately ripped! (confidence 5)
  280.     Statistics
  281.         Read error                           : 0
  282.         Jitter error (maybe fixed)           : 0
  283.         Retry sector count                   : 0
  284.         Damaged sector count                 : 0
  285.  
  286. Track 14
  287.     Filename : /Users/callumacrae/Desktop/Compilations - The Greatest Party Album Under The Sun [Disc 2] (1988) [FLAC]/14 - Yazz - The Only Way Is Up.flac
  288.  
  289.     Track gain             : -2.69 dB
  290.     Peak                   : 0.838928
  291.     CRC32 hash (test run)  : B2AAD789
  292.     CRC32 hash             : B2AAD789
  293.     CRC32 hash (skip zero) : 0D5A41A5
  294.     AccurateRip signature  : 4FF4355C
  295.         ->Accurately ripped! (confidence 5)
  296.     Statistics
  297.         Read error                           : 0
  298.         Jitter error (maybe fixed)           : 0
  299.         Retry sector count                   : 0
  300.         Damaged sector count                 : 0
  301.  
  302. Track 15
  303.     Filename : /Users/callumacrae/Desktop/Compilations - The Greatest Party Album Under The Sun [Disc 2] (1993) [FLAC]/15 - Whigfield - Saturday Night.flac
  304.  
  305.     Track gain             : -1.99 dB
  306.     Peak                   : 0.928223
  307.     CRC32 hash (test run)  : FC62FBEF
  308.     CRC32 hash             : FC62FBEF
  309.     CRC32 hash (skip zero) : 4BD88BDA
  310.     AccurateRip signature  : AFAACF97
  311.         ->Accurately ripped! (confidence 6)
  312.     Statistics
  313.         Read error                           : 0
  314.         Jitter error (maybe fixed)           : 0
  315.         Retry sector count                   : 0
  316.         Damaged sector count                 : 0
  317.  
  318. Track 16
  319.     Filename : /Users/callumacrae/Desktop/Compilations - The Greatest Party Album Under The Sun [Disc 2] (1993) [FLAC]/16 - D:Ream - Things Can Only Get Better.flac
  320.  
  321.     Track gain             : -3.76 dB
  322.     Peak                   : 0.979980
  323.     CRC32 hash (test run)  : 787E777E
  324.     CRC32 hash             : 787E777E
  325.     CRC32 hash (skip zero) : BF4B4EFE
  326.     AccurateRip signature  : 6DA76F67
  327.         ->Accurately ripped! (confidence 6)
  328.     Statistics
  329.         Read error                           : 0
  330.         Jitter error (maybe fixed)           : 0
  331.         Retry sector count                   : 0
  332.         Damaged sector count                 : 0
  333.  
  334. Track 17
  335.     Filename : /Users/callumacrae/Desktop/Compilations - The Greatest Party Album Under The Sun [Disc 2] (1993) [FLAC]/17 - Take That - Relight My Fire.flac
  336.  
  337.     Track gain             : -3.71 dB
  338.     Peak                   : 0.921234
  339.     CRC32 hash (test run)  : 861739D7
  340.     CRC32 hash             : 861739D7
  341.     CRC32 hash (skip zero) : 8536D9B0
  342.     AccurateRip signature  : D1ADD548
  343.         ->Accurately ripped! (confidence 5)
  344.     Statistics
  345.         Read error                           : 0
  346.         Jitter error (maybe fixed)           : 0
  347.         Retry sector count                   : 0
  348.         Damaged sector count                 : 0
  349.  
  350. Track 18
  351.     Filename : /Users/callumacrae/Desktop/Compilations - The Greatest Party Album Under The Sun [Disc 2] (1989) [FLAC]/18 - Tina Turner - The Best.flac
  352.  
  353.     Track gain             : -1.80 dB
  354.     Peak                   : 0.979980
  355.     CRC32 hash (test run)  : 6C971C51
  356.     CRC32 hash             : 6C971C51
  357.     CRC32 hash (skip zero) : 98971BEC
  358.     AccurateRip signature  : B50404C4
  359.         ->Accurately ripped! (confidence 5)
  360.     Statistics
  361.         Read error                           : 0
  362.         Jitter error (maybe fixed)           : 0
  363.         Retry sector count                   : 1
  364.         Damaged sector count                 : 0
  365.  
  366. Track 19
  367.     Filename : /Users/callumacrae/Desktop/Compilations - The Greatest Party Album Under The Sun [Disc 2] (1995) [FLAC]/19 - Robson & Jerome - Unchained Melody.flac
  368.  
  369.     Track gain             : -3.28 dB
  370.     Peak                   : 0.936523
  371.     CRC32 hash (test run)  : 69A9DD14
  372.     CRC32 hash             : 69A9DD14
  373.     CRC32 hash (skip zero) : 564FF56E
  374.     AccurateRip signature  : 974D69CC
  375.         ->Accurately ripped! (confidence 5)
  376.     Statistics
  377.         Read error                           : 0
  378.         Jitter error (maybe fixed)           : 0
  379.         Retry sector count                   : 0
  380.         Damaged sector count                 : 0
  381.  
  382. Track 20
  383.     Filename : /Users/callumacrae/Desktop/Compilations - The Greatest Party Album Under The Sun [Disc 2] (1963) [FLAC]/20 - Gerry & The Pacemakers - You'll Never Walk Alone.flac
  384.  
  385.     Track gain             : -5.88 dB
  386.     Peak                   : 0.919830
  387.     CRC32 hash (test run)  : CD5CDE1B
  388.     CRC32 hash             : CD5CDE1B
  389.     CRC32 hash (skip zero) : B3619A0B
  390.     AccurateRip signature  : AD8ED5B0
  391.         ->Accurately ripped! (confidence 5)
  392.     Statistics
  393.         Read error                           : 0
  394.         Jitter error (maybe fixed)           : 0
  395.         Retry sector count                   : 0
  396.         Damaged sector count                 : 0
  397.  
  398. No errors occurred
  399.  
  400. End of status report
RAW Paste Data
We use cookies for various purposes including analytics. By continuing to use Pastebin, you agree to our use of cookies as described in the Cookies Policy. OK, I Understand
 
Top