GrabHD

Untitled

Feb 29th, 2020
91
Never
Not a member of Pastebin yet? Sign Up, it unlocks many cool features!
  1. Общее
  2. Уникальный идентификатор : 241360548868908606411459975392261402112 (0xB59459D10BBECABE8E688CEC0D756E00)
  3. Полное имя : G:Torrent2UspekhWebRip1080p.mkv
  4. Формат : Matroska
  5. Версия формата : Version 4 / Version 2
  6. Размер файла : 3,25 Гбайт
  7. Продолжительность : 1 ч. 34 м.
  8. Общий поток : 4919 Кбит/сек
  9. Дата кодирования : UTC 2020-02-29 12:32:01
  10. Программа кодирования : mkvmerge v9.5.0 ('Quiet Fire') 64bit
  11. Библиотека кодирования : libebml v1.3.4 + libmatroska v1.4.5
  12.  
  13. Видео
  14. Идентификатор : 1
  15. Формат : AVC
  16. Формат/Информация : Advanced Video Codec
  17. Профиль формата : High@L4.1
  18. Настройки формата : CABAC / 5 Ref Frames
  19. Параметр CABAC формата : Да
  20. Параметр RefFrames формата : 5 кадров
  21. Идентификатор кодека : V_MPEG4/ISO/AVC
  22. Продолжительность : 1 ч. 34 м.
  23. Битрейт : 4725 Кбит/сек
  24. Ширина : 1920 пикселей
  25. Высота : 800 пикселей
  26. Соотношение сторон : 2,40:1
  27. Режим частоты кадров : Постоянный
  28. Частота кадров : 24,000 кадра/сек
  29. Цветовое пространство : YUV
  30. Субдискретизация насыщенности : 4:2:0
  31. Битовая глубина : 8 бит
  32. Тип развёртки : Прогрессивная
  33. Бит/(Пиксели*Кадры) : 0.128
  34. Размер потока : 3,12 Гбайт (96%)
  35. Язык : Russian
  36. Default : Да
  37. Forced : Нет
  38.  
  39. Аудио
  40. Идентификатор : 2
  41. Формат : AC-3
  42. Формат/Информация : Audio Coding 3
  43. Параметр Endianness формата : Big
  44. Идентификатор кодека : A_AC3
  45. Продолжительность : 1 ч. 34 м.
  46. Вид битрейта : Постоянный
  47. Битрейт : 192 Кбит/сек
  48. Каналы : 2 канала
  49. Расположение каналов : Front: L R
  50. Частота : 48,0 КГц
  51. Частота кадров : 31,250 кадров/сек (1536 SPF)
  52. Битовая глубина : 16 бит
  53. Метод сжатия : С потерями
  54. Размер потока : 130 Мбайт (4%)
  55. Заголовок : rus
  56. Язык : Russian
  57. Default : Да
  58. Forced : Нет
RAW Paste Data