SHARE
TWEET

Game of Thrones: Season 8 1080p WEB-DL

dirtyharrys Apr 15th, 2019 235 Never
Not a member of Pastebin yet? Sign Up, it unlocks many cool features!
  1. General
  2. Unique ID                   : 17423835516173438391607524946803168938 (0xD1BB56A85FB8B3DAB9EB1A622E016AA)
  3. Complete name               : C:\GoTS08E01.mkv
  4. Format                      : Matroska
  5. Format version              : Version 4
  6. File size                   : 1.44 GiB
  7. Duration                    : 55 min 47 s
  8. Overall bit rate            : 3 688 kb/s
  9. Movie name                  : Game of Thrones S08E01 / Game of Thrones: Season Eight
  10. Description                 : Episode 01: "Kings Landing"
  11. Encoded date                : UTC 2019-04-15 05:55:31
  12. Writing application         : mkvmerge v30.1.0 ('Forever And More') 32-bit
  13. Writing library             : libebml v1.3.6 + libmatroska v1.4.9
  14. Copyright                   : Movies HDs 2019
  15. ARTIST                      : HarshLearner
  16.  
  17. Video
  18. ID                          : 1
  19. Format                      : AVC
  20. Format/Info                 : Advanced Video Codec
  21. Format profile              : High@L4
  22. Format settings             : 4 Ref Frames
  23. Format settings, CABAC      : No
  24. Format settings, ReFrames   : 4 frames
  25. Codec ID                    : V_MPEG4/ISO/AVC
  26. Duration                    : 55 min 45 s
  27. Bit rate                    : 3 000 kb/s
  28. Width                       : 1 920 pixels
  29. Height                      : 1 080 pixels
  30. Display aspect ratio        : 16:9
  31. Frame rate mode             : Constant
  32. Frame rate                  : 23.976 FPS
  33. Color space                 : YUV
  34. Chroma subsampling          : 4:2:0
  35. Bit depth                   : 8 bits
  36. Scan type                   : Progressive
  37. Bits/(Pixel*Frame)          : 0.060
  38. Stream size                 : 1.16 GiB (81%)
  39. Title                       : Game of Thrones S08E01
  40. Writing library             : x264 core 157 r2935 545de2f
  41. Default                     : Yes
  42. Forced                      : No
  43. Color range                 : Limited
  44. Color primaries             : BT.709
  45. Transfer characteristics    : BT.709
  46. Matrix coefficients         : BT.709
  47.  
  48. Audio #1
  49. ID                          : 2
  50. Format                      : AC-3
  51. Format/Info                 : Audio Coding 3
  52. Commercial name             : Dolby Digital
  53. Codec ID                    : A_AC3
  54. Duration                    : 55 min 45 s
  55. Bit rate mode               : Constant
  56. Bit rate                    : 448 kb/s
  57. Channel(s)                  : 6 channels
  58. Channel layout              : L R C LFE Ls Rs
  59. Sampling rate               : 48.0 kHz
  60. Frame rate                  : 31.250 FPS (1536 SPF)
  61. Bit depth                   : 16 bits
  62. Compression mode            : Lossy
  63. Delay relative to video     : -5 ms
  64. Stream size                 : 179 MiB (12%)
  65. Language                    : English
  66. Service kind                : Complete Main
  67. Default                     : No
  68. Forced                      : No
  69.  
  70. Audio #2
  71. ID                          : 3
  72. Format                      : AC-3
  73. Format/Info                 : Audio Coding 3
  74. Commercial name             : Dolby Digital
  75. Codec ID                    : A_AC3
  76. Duration                    : 55 min 45 s
  77. Bit rate mode               : Constant
  78. Bit rate                    : 256 kb/s
  79. Channel(s)                  : 2 channels
  80. Channel layout              : L R
  81. Sampling rate               : 48.0 kHz
  82. Frame rate                  : 31.250 FPS (1536 SPF)
  83. Bit depth                   : 16 bits
  84. Compression mode            : Lossy
  85. Delay relative to video     : -5 ms
  86. Stream size                 : 102 MiB (7%)
  87. Language                    : Spanish
  88. Service kind                : Complete Main
  89. Default                     : Yes
  90. Forced                      : Yes
  91.  
  92. Text #1
  93. ID                          : 4
  94. Format                      : UTF-8
  95. Codec ID                    : S_TEXT/UTF8
  96. Codec ID/Info               : UTF-8 Plain Text
  97. Duration                    : 55 min 41 s
  98. Bit rate                    : 45 b/s
  99. Count of elements           : 665
  100. Stream size                 : 18.4 KiB (0%)
  101. Language                    : English
  102. Default                     : No
  103. Forced                      : No
  104.  
  105. Text #2
  106. ID                          : 5
  107. Format                      : UTF-8
  108. Codec ID                    : S_TEXT/UTF8
  109. Codec ID/Info               : UTF-8 Plain Text
  110. Duration                    : 52 min 44 s
  111. Bit rate                    : 39 b/s
  112. Count of elements           : 490
  113. Stream size                 : 15.3 KiB (0%)
  114. Language                    : Spanish
  115. Default                     : Yes
  116. Forced                      : Yes
  117.  
  118. Text #3
  119. ID                          : 6
  120. Format                      : UTF-8
  121. Codec ID                    : S_TEXT/UTF8
  122. Codec ID/Info               : UTF-8 Plain Text
  123. Duration                    : 1 min 38 s
  124. Bit rate                    : 79 b/s
  125. Count of elements           : 27
  126. Stream size                 : 979 Bytes (0%)
  127. Language                    : Spanish
  128. Default                     : No
  129. Forced                      : Yes
  130.  
  131. Menu
  132. 00:00:00.000                : en:Ratings
  133. 00:00:03.962                : en:Previously On
  134. 00:01:59.995                : en:Studio Logo
  135. 00:02:06.084                : en:Opening Credits
  136. 00:03:53.066                : en:Arrival in Winterfell
  137. 00:09:47.087                : en:Fight together or die
  138. 00:12:54.107                : en:Sansa sees through the lies
  139. 00:15:37.103                : en:A tearful reunion
  140. 00:17:45.982                : en:A queen must be earned
  141. 00:22:41.026                : en:Cersei asks a favor of Bronn
  142. 00:25:25.983                : en:What is dead may never die
  143. 00:29:25.013                : en:Hold on to whatever you can
  144. 00:36:41.950                : en:A forge for dragonglass
  145. 00:39:12.016                : en:Sansa is frustrated with Jon's choice
  146. 00:41:04.045                : en:The head of House Tarly
  147. 00:44:33.087                : en:It's time for Jon to know the truth
  148. 00:48:41.085                : en:A message from the Night King
  149. 00:52:29.104                : en:An unexpected visitor
  150. 00:53:44.054                : en:End Credits
  151. 00:55:03.967                : en:Next Time
  152. 00:55:41.004                : en:Inside Game of Thrones
RAW Paste Data
We use cookies for various purposes including analytics. By continuing to use Pastebin, you agree to our use of cookies as described in the Cookies Policy. OK, I Understand
 
Top