SHARE
TWEET

original sample mediainfo

a guest Mar 15th, 2014 198 Never
Not a member of Pastebin yet? Sign Up, it unlocks many cool features!
  1. General
  2. ID : 1 (0x1)
  3. Complete name : E:\sample\sample.ts
  4. Format : MPEG-TS
  5. File size : 46.0 MiB
  6. Duration : 59s 808ms
  7. Overall bit rate mode : Variable
  8. Overall bit rate : 6 445 Kbps
  9. Maximum Overall bit rate : 35.5 Mbps
  10.  
  11. Video
  12. ID : 4113 (0x1011)
  13. Menu ID : 1 (0x1)
  14. Format : AVC
  15. Format/Info : Advanced Video Codec
  16. Format profile : High@L4.0
  17. Format settings, CABAC : Yes
  18. Format settings, ReFrames : 3 frames
  19. Format settings, GOP : M=4, N=28
  20. Codec ID : 27
  21. Duration : 59s 720ms
  22. Bit rate mode : Variable
  23. Bit rate : 5 545 Kbps
  24. Maximum bit rate : 40.0 Mbps
  25. Width : 1 920 pixels
  26. Height : 1 080 pixels
  27. Display aspect ratio : 16:9
  28. Frame rate : 25.000 fps
  29. Standard : Component
  30. Color space : YUV
  31. Chroma subsampling : 4:2:0
  32. Bit depth : 8 bits
  33. Scan type : Interlaced
  34. Scan order : Top Field First
  35. Bits/(Pixel*Frame) : 0.107
  36. Stream size : 39.5 MiB (86%)
  37. Color primaries : BT.709
  38. Transfer characteristics : BT.709
  39. Matrix coefficients : BT.709
  40.  
  41. Audio #1
  42. ID : 4352 (0x1100)
  43. Menu ID : 1 (0x1)
  44. Format : AC-3
  45. Format/Info : Audio Coding 3
  46. Mode extension : CM (complete main)
  47. Format settings, Endianness : Big
  48. Codec ID : 129
  49. Duration : 59s 840ms
  50. Bit rate mode : Constant
  51. Bit rate : 192 Kbps
  52. Channel(s) : 2 channels
  53. Channel positions : Front: L R
  54. Sampling rate : 48.0 KHz
  55. Bit depth : 16 bits
  56. Compression mode : Lossy
  57. Delay relative to video : -216ms
  58. Stream size : 1.37 MiB (3%)
  59.  
  60. Audio #2
  61. ID : 4353 (0x1101)
  62. Menu ID : 1 (0x1)
  63. Format : MPEG Audio
  64. Format version : Version 1
  65. Format profile : Layer 2
  66. Codec ID : 4
  67. Duration : 59s 856ms
  68. Bit rate mode : Constant
  69. Bit rate : 192 Kbps
  70. Channel(s) : 2 channels
  71. Sampling rate : 48.0 KHz
  72. Compression mode : Lossy
  73. Delay relative to video : -239ms
  74. Stream size : 1.37 MiB (3%)
  75. Language : English
  76.  
  77. Audio #3
  78. ID : 4354 (0x1102)
  79. Menu ID : 1 (0x1)
  80. Format : AC-3
  81. Format/Info : Audio Coding 3
  82. Mode extension : CM (complete main)
  83. Format settings, Endianness : Big
  84. Codec ID : 129
  85. Duration : 59s 840ms
  86. Bit rate mode : Constant
  87. Bit rate : 192 Kbps
  88. Channel(s) : 2 channels
  89. Channel positions : Front: L R
  90. Sampling rate : 48.0 KHz
  91. Bit depth : 16 bits
  92. Compression mode : Lossy
  93. Delay relative to video : -216ms
  94. Stream size : 1.37 MiB (3%)
RAW Paste Data
We use cookies for various purposes including analytics. By continuing to use Pastebin, you agree to our use of cookies as described in the Cookies Policy. OK, I Understand
Top