SHARE
TWEET

Untitled

mft39anton Oct 18th, 2018 114 Never
Not a member of Pastebin yet? Sign Up, it unlocks many cool features!
  1. Disc Title:     IMAGINE_DISC1
  2. Disc Size:      40,865,576,994 bytes
  3. Protection:     AACS
  4. BD-Java:        No
  5. BDInfo:         0.5.8
  6.  
  7. Notes:          
  8.  
  9. BDINFO HOME:
  10.   Cinema Squid
  11.     http://www.cinemasquid.com/blu-ray/tools/bdinfo
  12.  
  13. INCLUDES FORUMS REPORT FOR:
  14.   AVS Forum Blu-ray Audio and Video Specifications Thread
  15.     http://www.avsforum.com/avs-vb/showthread.php?t=1155731
  16.  
  17.  
  18. ********************
  19. PLAYLIST: 00003.MPLS
  20. ********************
  21.  
  22. <--- BEGIN FORUMS PASTE --->
  23. [code]
  24.                                                                                                                 Total   Video                                            
  25. Title                                                           Codec   Length  Movie Size      Disc Size       Bitrate Bitrate Main Audio Track                          Secondary Audio Track
  26. -----                                                           ------  ------- --------------  --------------  ------- ------- ------------------                        ---------------------
  27. 00003.MPLS                                                      AVC     1:01:34 13,347,059,712  40,865,576,994  28.90   22.92   LPCM 2.0 4608Kbps (96kHz/24-bit)          
  28. [/code]
  29.  
  30. [code]
  31.  
  32. DISC INFO:
  33.  
  34. Disc Title:     IMAGINE_DISC1
  35. Disc Size:      40,865,576,994 bytes
  36. Protection:     AACS
  37. BD-Java:        No
  38. BDInfo:         0.5.8
  39.  
  40. PLAYLIST REPORT:
  41.  
  42. Name:                   00003.MPLS
  43. Length:                 1:01:34.440 (h:m:s.ms)
  44. Size:                   13,347,059,712 bytes
  45. Total Bitrate:          28.90 Mbps
  46.  
  47. VIDEO:
  48.  
  49. Codec                   Bitrate             Description    
  50. -----                   -------             -----------    
  51. MPEG-4 AVC Video        22917 kbps          1080p / 23.976 fps / 16:9 / High Profile 4.1
  52.  
  53. AUDIO:
  54.  
  55. Codec                           Language        Bitrate         Description    
  56. -----                           --------        -------         -----------    
  57. LPCM Audio                      English         4608 kbps       2.0 / 96 kHz / 4608 kbps / 24-bit
  58.  
  59. FILES:
  60.  
  61. Name            Time In         Length          Size            Total Bitrate  
  62. ----            -------         ------          ----            -------------  
  63. 00004.M2TS      0:00:00.000     0:00:02.001     7,569,408       30,247          
  64. 00000.M2TS      0:00:02.001     1:01:32.438     13,339,490,304  28,901          
  65.  
  66. CHAPTERS:
  67.  
  68. Number          Time In         Length          Avg Video Rate  Max 1-Sec Rate  Max 1-Sec Time  Max 5-Sec Rate  Max 5-Sec Time  Max 10Sec Rate  Max 10Sec Time  Avg Frame Size  Max Frame Size  Max Frame Time  
  69. ------          -------         ------          --------------  --------------  --------------  --------------  --------------  --------------  --------------  --------------  --------------  --------------  
  70. 1               0:00:00.000     0:03:18.907     23,465 kbps     32,814 kbps     00:01:55.156    27,943 kbps     00:01:52.278    25,766 kbps     00:01:47.190    122,309 bytes   792,893 bytes   00:00:00.959    
  71. 2               0:03:18.907     0:03:06.519     22,980 kbps     32,947 kbps     00:03:51.230    28,449 kbps     00:03:47.393    26,108 kbps     00:03:45.183    119,807 bytes   632,260 bytes   00:03:51.272    
  72. 3               0:06:25.426     0:03:51.689     22,888 kbps     32,505 kbps     00:09:36.576    27,889 kbps     00:09:33.698    25,821 kbps     00:09:31.487    119,327 bytes   632,257 bytes   00:07:41.502    
  73. 4               0:10:17.116     0:03:48.686     22,874 kbps     32,101 kbps     00:13:26.806    28,332 kbps     00:13:23.928    25,978 kbps     00:13:23.636    119,257 bytes   633,721 bytes   00:11:32.692    
  74. 5               0:14:05.803     0:02:18.805     22,711 kbps     32,198 kbps     00:15:22.880    28,064 kbps     00:15:19.043    25,948 kbps     00:15:16.832    118,403 bytes   629,740 bytes   00:15:23.881    
  75. 6               0:16:24.608     0:02:32.485     22,897 kbps     33,250 kbps     00:17:17.995    28,100 kbps     00:17:14.158    26,010 kbps     00:17:12.865    119,377 bytes   632,999 bytes   00:17:18.037    
  76. 7               0:18:57.094     0:04:36.317     22,979 kbps     32,433 kbps     00:23:03.340    28,222 kbps     00:23:00.462    25,898 kbps     00:23:00.170    119,800 bytes   632,764 bytes   00:23:04.341    
  77. 8               0:23:33.412     0:03:38.134     22,885 kbps     32,232 kbps     00:24:59.414    28,002 kbps     00:24:55.577    25,885 kbps     00:24:55.285    119,310 bytes   630,438 bytes   00:24:10.532    
  78. 9               0:27:11.546     0:02:49.627     22,737 kbps     32,109 kbps     00:28:50.603    28,126 kbps     00:28:46.766    25,937 kbps     00:28:46.474    118,540 bytes   634,334 bytes   00:28:50.645    
  79. 10              0:30:01.174     0:05:59.358     22,899 kbps     33,333 kbps     00:32:40.833    28,574 kbps     00:32:36.996    26,192 kbps     00:30:41.589    119,385 bytes   632,050 bytes   00:32:40.875    
  80. 11              0:36:00.533     0:03:46.684     22,888 kbps     32,874 kbps     00:38:26.178    28,378 kbps     00:38:23.301    26,038 kbps     00:38:23.009    119,330 bytes   633,451 bytes   00:38:27.179    
  81. 12              0:39:47.218     0:05:02.093     22,929 kbps     32,499 kbps     00:40:22.253    28,294 kbps     00:40:18.415    25,976 kbps     00:42:13.239    119,539 bytes   632,779 bytes   00:40:22.294    
  82. 13              0:44:49.311     0:03:29.000     22,946 kbps     33,151 kbps     00:46:07.598    28,719 kbps     00:47:59.835    26,256 kbps     00:47:59.543    119,628 bytes   632,313 bytes   00:48:03.714    
  83. 14              0:48:18.312     0:02:57.468     22,745 kbps     31,591 kbps     00:49:58.787    28,071 kbps     00:49:54.950    25,927 kbps     00:49:54.658    118,583 bytes   628,982 bytes   00:49:08.946    
  84. 15              0:51:15.781     0:06:50.576     22,897 kbps     32,503 kbps     00:53:49.017    28,363 kbps     00:57:36.369    26,069 kbps     00:57:36.077    119,377 bytes   633,866 bytes   00:55:45.133    
  85. 16              0:58:06.357     0:03:27.081     22,878 kbps     33,249 kbps     01:01:30.436    28,102 kbps     01:01:26.599    25,953 kbps     00:59:31.192    119,275 bytes   633,035 bytes   01:01:30.478    
  86. 17              1:01:33.439     0:00:01.001     22,441 kbps     0 kbps          00:00:00.000    0 kbps          00:00:00.000    0 kbps          00:00:00.000    122,082 bytes   521,766 bytes   01:01:34.315    
  87.  
  88. STREAM DIAGNOSTICS:
  89.  
  90. File            PID             Type            Codec           Language                Seconds                 Bitrate                 Bytes           Packets        
  91. ----            ---             ----            -----           --------                --------------          --------------          -------------   -----          
  92. 00004.M2TS      4113 (0x1011)   0x1B            AVC                                     1.919                   25,245                  6,054,417       32,933          
  93. 00004.M2TS      4352 (0x1100)   0x80            LPCM            eng (English)           1.919                   4,822                   1,156,484       6,416          
  94. 00000.M2TS      4113 (0x1011)   0x1B            AVC                                     3692.314                22,917                  10,577,316,480  57,537,027      
  95. 00000.M2TS      4352 (0x1100)   0x80            LPCM            eng (English)           3692.314                4,615                   2,129,796,508   11,815,792      
  96.  
  97. [/code]
  98. <---- END FORUMS PASTE ---->
  99.  
  100. QUICK SUMMARY:
  101.  
  102. Disc Title: IMAGINE_DISC1
  103. Disc Size: 40,865,576,994 bytes
  104. Protection: AACS
  105. BD-Java: No
  106. Playlist: 00003.MPLS
  107. Size: 13,347,059,712 bytes
  108. Length: 1:01:34.440
  109. Total Bitrate: 28.90 Mbps
  110. Video: MPEG-4 AVC Video / 22917 kbps / 1080p / 23.976 fps / 16:9 / High Profile 4.1
  111. Audio: English / LPCM Audio / 2.0 / 96 kHz / 4608 kbps / 24-bit
  112.  
  113.  
  114. ********************
  115. PLAYLIST: 00001.MPLS
  116. ********************
  117.  
  118. <--- BEGIN FORUMS PASTE --->
  119. [code]
  120.                                                                                                                 Total   Video                                            
  121. Title                                                           Codec   Length  Movie Size      Disc Size       Bitrate Bitrate Main Audio Track                          Secondary Audio Track
  122. -----                                                           ------  ------- --------------  --------------  ------- ------- ------------------                        ---------------------
  123. 00001.MPLS                                                      AVC     0:39:39 10,733,408,256  40,865,576,994  36.09   21.81   LPCM 2.0 4608Kbps (96kHz/24-bit)          DTS-HD Master 5.1 7754Kbps (96kHz/24-bit)
  124. [/code]
  125.  
  126. [code]
  127.  
  128. DISC INFO:
  129.  
  130. Disc Title:     IMAGINE_DISC1
  131. Disc Size:      40,865,576,994 bytes
  132. Protection:     AACS
  133. BD-Java:        No
  134. BDInfo:         0.5.8
  135.  
  136. PLAYLIST REPORT:
  137.  
  138. Name:                   00001.MPLS
  139. Length:                 0:39:39.335 (h:m:s.ms)
  140. Size:                   10,733,408,256 bytes
  141. Total Bitrate:          36.09 Mbps
  142.  
  143. VIDEO:
  144.  
  145. Codec                   Bitrate             Description    
  146. -----                   -------             -----------    
  147. MPEG-4 AVC Video        21810 kbps          1080p / 23.976 fps / 16:9 / High Profile 4.1
  148.  
  149. AUDIO:
  150.  
  151. Codec                           Language        Bitrate         Description    
  152. -----                           --------        -------         -----------    
  153. LPCM Audio                      English         4608 kbps       2.0 / 96 kHz / 4608 kbps / 24-bit
  154. DTS-HD Master Audio             English         7754 kbps       5.1 / 96 kHz / 7754 kbps / 24-bit (DTS Core: 5.1 / 48 kHz / 1509 kbps / 24-bit)
  155.  
  156. FILES:
  157.  
  158. Name            Time In         Length          Size            Total Bitrate  
  159. ----            -------         ------          ----            -------------  
  160. 00003.M2TS      0:00:00.000     0:00:02.001     7,741,440       30,935          
  161. 00006.M2TS      0:00:02.001     0:39:37.333     10,725,666,816  36,093          
  162.  
  163. CHAPTERS:
  164.  
  165. Number          Time In         Length          Avg Video Rate  Max 1-Sec Rate  Max 1-Sec Time  Max 5-Sec Rate  Max 5-Sec Time  Max 10Sec Rate  Max 10Sec Time  Avg Frame Size  Max Frame Size  Max Frame Time  
  166. ------          -------         ------          --------------  --------------  --------------  --------------  --------------  --------------  --------------  --------------  --------------  --------------  
  167. 1               0:00:00.000     0:03:08.313     22,593 kbps     32,404 kbps     00:01:55.156    25,875 kbps     00:00:35.493    24,867 kbps     00:00:35.243    117,762 bytes   898,515 bytes   00:00:01.918    
  168. 2               0:03:08.313     0:03:51.105     21,865 kbps     31,584 kbps     00:03:51.230    25,418 kbps     00:03:47.393    23,569 kbps     00:04:47.537    113,996 bytes   852,266 bytes   00:04:56.504    
  169. 3               0:06:59.419     0:04:14.379     21,625 kbps     32,851 kbps     00:09:36.576    25,655 kbps     00:09:33.614    23,645 kbps     00:09:33.406    112,743 bytes   860,851 bytes   00:09:16.472    
  170. 4               0:11:13.798     0:02:29.315     21,815 kbps     31,649 kbps     00:13:27.765    25,334 kbps     00:11:28.813    23,625 kbps     00:13:24.595    113,734 bytes   851,388 bytes   00:12:37.923    
  171. 5               0:13:43.113     0:06:08.076     21,739 kbps     32,557 kbps     00:17:17.995    25,411 kbps     00:15:19.960    23,547 kbps     00:15:19.710    113,335 bytes   851,835 bytes   00:16:29.113    
  172. 6               0:19:51.190     0:03:18.364     21,777 kbps     31,691 kbps     00:23:04.299    25,425 kbps     00:23:01.254    23,400 kbps     00:21:05.055    113,536 bytes   852,718 bytes   00:20:19.343    
  173. 7               0:23:09.554     0:02:47.333     21,727 kbps     32,266 kbps     00:24:59.414    25,384 kbps     00:24:56.494    23,594 kbps     00:24:56.244    113,276 bytes   851,735 bytes   00:24:10.532    
  174. 8               0:25:56.888     0:05:39.213     21,721 kbps     31,885 kbps     00:26:54.529    25,449 kbps     00:30:41.881    23,613 kbps     00:30:42.549    113,246 bytes   851,620 bytes   00:29:55.877    
  175. 9               0:31:36.102     0:03:45.516     21,699 kbps     31,870 kbps     00:32:40.833    25,335 kbps     00:32:37.789    23,622 kbps     00:34:32.779    113,128 bytes   854,102 bytes   00:31:50.992    
  176. 10              0:35:21.619     0:04:16.714     21,769 kbps     31,932 kbps     00:38:26.178    25,458 kbps     00:38:23.301    23,498 kbps     00:38:23.009    113,494 bytes   851,747 bytes   00:39:32.411    
  177. 11              0:39:38.334     0:00:01.001     21,022 kbps     0 kbps          00:00:00.000    0 kbps          00:00:00.000    0 kbps          00:00:00.000    114,367 bytes   819,237 bytes   00:39:39.126    
  178.  
  179. STREAM DIAGNOSTICS:
  180.  
  181. File            PID             Type            Codec           Language                Seconds                 Bitrate                 Bytes           Packets        
  182. ----            ---             ----            -----           --------                --------------          --------------          -------------   -----          
  183. 00003.M2TS      4113 (0x1011)   0x1B            AVC                                     1.919                   23,603                  5,660,602       30,791          
  184. 00003.M2TS      4352 (0x1100)   0x80            LPCM            eng (English)           1.919                   4,822                   1,156,484       6,416          
  185. 00003.M2TS      4353 (0x1101)   0x86            DTS-HD MA       eng (English)           1.919                   2,102                   504,144         3,008          
  186. 00006.M2TS      4113 (0x1011)   0x1B            AVC                                     2377.250                21,810                  6,481,116,073   35,256,784      
  187. 00006.M2TS      4352 (0x1100)   0x80            LPCM            eng (English)           2377.250                4,615                   1,371,246,828   7,607,472      
  188. 00006.M2TS      4353 (0x1101)   0x86            DTS-HD MA       eng (English)           2377.250                7,759                   2,305,771,756   12,918,950      
  189.  
  190. [/code]
  191. <---- END FORUMS PASTE ---->
  192.  
  193. QUICK SUMMARY:
  194.  
  195. Disc Title: IMAGINE_DISC1
  196. Disc Size: 40,865,576,994 bytes
  197. Protection: AACS
  198. BD-Java: No
  199. Playlist: 00001.MPLS
  200. Size: 10,733,408,256 bytes
  201. Length: 0:39:39.335
  202. Total Bitrate: 36.09 Mbps
  203. Video: MPEG-4 AVC Video / 21810 kbps / 1080p / 23.976 fps / 16:9 / High Profile 4.1
  204. Audio: English / LPCM Audio / 2.0 / 96 kHz / 4608 kbps / 24-bit
  205. Audio: English / DTS-HD Master Audio / 5.1 / 96 kHz / 7754 kbps / 24-bit (DTS Core: 5.1 / 48 kHz / 1509 kbps / 24-bit)
  206.  
  207.  
  208. ********************
  209. PLAYLIST: 00004.MPLS
  210. ********************
  211.  
  212. <--- BEGIN FORUMS PASTE --->
  213. [code]
  214.                                                                                                                 Total   Video                                            
  215. Title                                                           Codec   Length  Movie Size      Disc Size       Bitrate Bitrate Main Audio Track                          Secondary Audio Track
  216. -----                                                           ------  ------- --------------  --------------  ------- ------- ------------------                        ---------------------
  217. 00004.MPLS                                                      AVC     0:39:19 8,544,786,432   40,865,576,994  28.97   21.74   DTS-HD Master 4.0 5722Kbps (96kHz/24-bit)
  218. [/code]
  219.  
  220. [code]
  221.  
  222. DISC INFO:
  223.  
  224. Disc Title:     IMAGINE_DISC1
  225. Disc Size:      40,865,576,994 bytes
  226. Protection:     AACS
  227. BD-Java:        No
  228. BDInfo:         0.5.8
  229.  
  230. PLAYLIST REPORT:
  231.  
  232. Name:                   00004.MPLS
  233. Length:                 0:39:19.357 (h:m:s.ms)
  234. Size:                   8,544,786,432 bytes
  235. Total Bitrate:          28.97 Mbps
  236.  
  237. VIDEO:
  238.  
  239. Codec                   Bitrate             Description    
  240. -----                   -------             -----------    
  241. MPEG-4 AVC Video        21740 kbps          1080p / 23.976 fps / 16:9 / High Profile 4.1
  242.  
  243. AUDIO:
  244.  
  245. Codec                           Language        Bitrate         Description    
  246. -----                           --------        -------         -----------    
  247. DTS-HD Master Audio             English         5722 kbps       4.0 / 96 kHz / 5722 kbps / 24-bit (DTS Core: 4.0 / 48 kHz / 1509 kbps / 24-bit)
  248.  
  249. FILES:
  250.  
  251. Name            Time In         Length          Size            Total Bitrate  
  252. ----            -------         ------          ----            -------------  
  253. 00011.M2TS      0:00:00.000     0:00:02.001     6,451,200       25,779          
  254. 00001.M2TS      0:00:02.001     0:39:17.355     8,538,335,232   28,976          
  255.  
  256. CHAPTERS:
  257.  
  258. Number          Time In         Length          Avg Video Rate  Max 1-Sec Rate  Max 1-Sec Time  Max 5-Sec Rate  Max 5-Sec Time  Max 10Sec Rate  Max 10Sec Time  Avg Frame Size  Max Frame Size  Max Frame Time  
  259. ------          -------         ------          --------------  --------------  --------------  --------------  --------------  --------------  --------------  --------------  --------------  --------------  
  260. 1               0:00:00.000     0:03:07.312     22,551 kbps     32,536 kbps     00:01:55.156    25,565 kbps     00:01:52.278    24,527 kbps     00:00:35.243    117,543 bytes   888,614 bytes   00:00:01.918    
  261. 2               0:03:07.312     0:03:52.065     21,878 kbps     31,305 kbps     00:03:51.230    25,247 kbps     00:03:47.393    23,685 kbps     00:04:30.270    114,064 bytes   846,881 bytes   00:03:25.371    
  262. 3               0:06:59.377     0:04:16.839     21,574 kbps     32,274 kbps     00:09:36.576    25,469 kbps     00:09:33.614    23,436 kbps     00:10:20.411    112,478 bytes   842,913 bytes   00:10:42.808    
  263. 4               0:11:16.217     0:02:28.982     21,739 kbps     31,461 kbps     00:13:27.765    25,168 kbps     00:11:28.813    23,297 kbps     00:13:24.595    113,336 bytes   842,658 bytes   00:12:37.923    
  264. 5               0:13:45.199     0:06:01.319     21,655 kbps     32,023 kbps     00:17:17.995    25,172 kbps     00:19:10.190    23,440 kbps     00:14:11.600    112,899 bytes   843,550 bytes   00:16:29.113    
  265. 6               0:19:46.518     0:03:15.278     21,656 kbps     30,939 kbps     00:21:09.184    24,983 kbps     00:21:05.347    23,435 kbps     00:21:53.020    112,904 bytes   844,431 bytes   00:20:19.343    
  266. 7               0:23:01.797     0:02:46.499     21,730 kbps     31,686 kbps     00:24:59.414    25,135 kbps     00:24:56.494    23,401 kbps     00:23:48.135    113,292 bytes   843,728 bytes   00:24:10.532    
  267. 8               0:25:48.296     0:05:26.159     21,582 kbps     31,375 kbps     00:30:45.718    25,307 kbps     00:30:41.881    23,450 kbps     00:30:41.589    112,520 bytes   843,394 bytes   00:29:55.877    
  268. 9               0:31:14.455     0:03:44.641     21,643 kbps     31,913 kbps     00:32:40.833    25,179 kbps     00:32:37.789    23,362 kbps     00:31:29.554    112,837 bytes   845,007 bytes   00:31:50.992    
  269. 10              0:34:59.096     0:04:19.259     21,667 kbps     31,982 kbps     00:38:26.178    25,312 kbps     00:38:23.301    23,338 kbps     00:38:23.009    112,962 bytes   842,864 bytes   00:35:42.181    
  270. 11              0:39:18.355     0:00:01.001     21,778 kbps     0 kbps          00:00:00.000    0 kbps          00:00:00.000    0 kbps          00:00:00.000    118,477 bytes   834,962 bytes   00:39:18.981    
  271.  
  272. STREAM DIAGNOSTICS:
  273.  
  274. File            PID             Type            Codec           Language                Seconds                 Bitrate                 Bytes           Packets        
  275. ----            ---             ----            -----           --------                --------------          --------------          -------------   -----          
  276. 00011.M2TS      4113 (0x1011)   0x1B            AVC                                     1.919                   23,509                  5,638,022       30,668          
  277. 00011.M2TS      4352 (0x1100)   0x86            DTS-HD MA       eng (English)           1.919                   1,912                   458,572         2,820          
  278. 00001.M2TS      4113 (0x1011)   0x1B            AVC                                     2357.230                21,741                  6,405,968,824   34,848,004      
  279. 00001.M2TS      4352 (0x1100)   0x86            DTS-HD MA       eng (English)           2357.230                5,726                   1,687,093,040   9,543,540      
  280.  
  281. [/code]
  282. <---- END FORUMS PASTE ---->
  283.  
  284. QUICK SUMMARY:
  285.  
  286. Disc Title: IMAGINE_DISC1
  287. Disc Size: 40,865,576,994 bytes
  288. Protection: AACS
  289. BD-Java: No
  290. Playlist: 00004.MPLS
  291. Size: 8,544,786,432 bytes
  292. Length: 0:39:19.357
  293. Total Bitrate: 28.97 Mbps
  294. Video: MPEG-4 AVC Video / 21740 kbps / 1080p / 23.976 fps / 16:9 / High Profile 4.1
  295. Audio: English / DTS-HD Master Audio / 4.0 / 96 kHz / 5722 kbps / 24-bit (DTS Core: 4.0 / 48 kHz / 1509 kbps / 24-bit)
  296.  
  297.  
  298. ********************
  299. PLAYLIST: 00002.MPLS
  300. ********************
  301.  
  302. <--- BEGIN FORUMS PASTE --->
  303. [code]
  304.                                                                                                                 Total   Video                                            
  305. Title                                                           Codec   Length  Movie Size      Disc Size       Bitrate Bitrate Main Audio Track                          Secondary Audio Track
  306. -----                                                           ------  ------- --------------  --------------  ------- ------- ------------------                        ---------------------
  307. 00002.MPLS                                                      AVC     0:21:14 6,121,617,408   40,865,576,994  38.41   23.69   LPCM 2.0 4608Kbps (96kHz/24-bit)          DTS-HD Master 5.1 8117Kbps (96kHz/24-bit)
  308. [/code]
  309.  
  310. [code]
  311.  
  312. DISC INFO:
  313.  
  314. Disc Title:     IMAGINE_DISC1
  315. Disc Size:      40,865,576,994 bytes
  316. Protection:     AACS
  317. BD-Java:        No
  318. BDInfo:         0.5.8
  319.  
  320. PLAYLIST REPORT:
  321.  
  322. Name:                   00002.MPLS
  323. Length:                 0:21:14.898 (h:m:s.ms)
  324. Size:                   6,121,617,408 bytes
  325. Total Bitrate:          38.41 Mbps
  326.  
  327. VIDEO:
  328.  
  329. Codec                   Bitrate             Description    
  330. -----                   -------             -----------    
  331. MPEG-4 AVC Video        23688 kbps          1080p / 23.976 fps / 16:9 / High Profile 4.1
  332.  
  333. AUDIO:
  334.  
  335. Codec                           Language        Bitrate         Description    
  336. -----                           --------        -------         -----------    
  337. LPCM Audio                      English         4608 kbps       2.0 / 96 kHz / 4608 kbps / 24-bit
  338. DTS-HD Master Audio             English         8117 kbps       5.1 / 96 kHz / 8117 kbps / 24-bit (DTS Core: 5.1 / 48 kHz / 1509 kbps / 24-bit)
  339.  
  340. FILES:
  341.  
  342. Name            Time In         Length          Size            Total Bitrate  
  343. ----            -------         ------          ----            -------------  
  344. 00007.M2TS      0:00:00.000     0:21:14.898     6,121,617,408   38,413          
  345.  
  346. CHAPTERS:
  347.  
  348. Number          Time In         Length          Avg Video Rate  Max 1-Sec Rate  Max 1-Sec Time  Max 5-Sec Rate  Max 5-Sec Time  Max 10Sec Rate  Max 10Sec Time  Avg Frame Size  Max Frame Size  Max Frame Time  
  349. ------          -------         ------          --------------  --------------  --------------  --------------  --------------  --------------  --------------  --------------  --------------  --------------  
  350. 1               0:00:00.000     0:03:27.415     24,133 kbps     34,214 kbps     00:01:53.154    29,389 kbps     00:01:50.276    26,849 kbps     00:01:01.061    125,792 bytes   653,994 bytes   00:01:04.272    
  351. 2               0:03:27.415     0:04:07.664     23,639 kbps     33,382 kbps     00:03:48.269    29,133 kbps     00:03:45.391    26,548 kbps     00:03:45.099    123,245 bytes   596,511 bytes   00:03:49.270    
  352. 3               0:07:35.079     0:03:15.194     23,568 kbps     34,915 kbps     00:09:34.574    29,035 kbps     00:09:31.696    26,573 kbps     00:09:29.485    122,874 bytes   596,780 bytes   00:07:39.500    
  353. 4               0:10:50.274     0:03:13.234     23,650 kbps     32,933 kbps     00:13:24.804    28,988 kbps     00:13:21.926    26,584 kbps     00:13:21.634    123,299 bytes   597,349 bytes   00:13:25.805    
  354. 5               0:14:03.509     0:03:30.126     23,569 kbps     34,531 kbps     00:17:15.993    28,746 kbps     00:17:13.032    26,529 kbps     00:17:12.823    122,879 bytes   662,708 bytes   00:17:16.035    
  355. 6               0:17:33.635     0:03:40.261     23,579 kbps     33,544 kbps     00:19:11.108    29,123 kbps     00:19:08.230    26,614 kbps     00:19:07.938    122,928 bytes   593,506 bytes   00:19:12.109    
  356. 7               0:21:13.897     0:00:01.000     23,238 kbps     0 kbps          00:00:00.000    0 kbps          00:00:00.000    0 kbps          00:00:00.000    126,420 bytes   505,696 bytes   00:21:13.939    
  357.  
  358. STREAM DIAGNOSTICS:
  359.  
  360. File            PID             Type            Codec           Language                Seconds                 Bitrate                 Bytes           Packets        
  361. ----            ---             ----            -----           --------                --------------          --------------          -------------   -----          
  362. 00007.M2TS      4113 (0x1011)   0x1B            AVC                                     1274.815                23,690                  3,774,967,800   20,533,929      
  363. 00007.M2TS      4352 (0x1100)   0x80            LPCM            eng (English)           1274.815                4,607                   734,208,720     4,073,280      
  364. 00007.M2TS      4353 (0x1101)   0x86            DTS-HD MA       eng (English)           1274.815                8,117                   1,293,526,496   7,233,479      
  365.  
  366. [/code]
  367. <---- END FORUMS PASTE ---->
  368.  
  369. QUICK SUMMARY:
  370.  
  371. Disc Title: IMAGINE_DISC1
  372. Disc Size: 40,865,576,994 bytes
  373. Protection: AACS
  374. BD-Java: No
  375. Playlist: 00002.MPLS
  376. Size: 6,121,617,408 bytes
  377. Length: 0:21:14.898
  378. Total Bitrate: 38.41 Mbps
  379. Video: MPEG-4 AVC Video / 23688 kbps / 1080p / 23.976 fps / 16:9 / High Profile 4.1
  380. Audio: English / LPCM Audio / 2.0 / 96 kHz / 4608 kbps / 24-bit
  381. Audio: English / DTS-HD Master Audio / 5.1 / 96 kHz / 8117 kbps / 24-bit (DTS Core: 5.1 / 48 kHz / 1509 kbps / 24-bit)
RAW Paste Data
We use cookies for various purposes including analytics. By continuing to use Pastebin, you agree to our use of cookies as described in the Cookies Policy. OK, I Understand
 
Top