GrabHD

Untitled

Feb 26th, 2020
118
Never
Not a member of Pastebin yet? Sign Up, it unlocks many cool features!
  1. Общее
  2. Уникальный идентификатор : 229578436455430907381676779397406647118 (0xACB732D33929AD7789A928F05C6DE34E)
  3. Полное имя : D:\Раздача\Bladfest.2018.BDRip.720p.grab777.mkv
  4. Формат : Matroska
  5. Версия формата : Version 4 / Version 2
  6. Размер файла : 4,67 Гбайт
  7. Продолжительность : 1 ч. 32 м.
  8. Общий поток : 7207 Кбит/сек
  9. Название фильма : Blood Fest 2018 BDRip 720p grab777
  10. Дата кодирования : UTC 2020-02-26 15:54:32
  11. Программа кодирования : mkvmerge v7.3.0 ('Nouages') 64bit built on Oct 22 2014 18:53:34
  12. Библиотека кодирования : libebml v1.3.0 + libmatroska v1.4.1
  13.  
  14. Видео
  15. Идентификатор : 1
  16. Формат : AVC
  17. Формат/Информация : Advanced Video Codec
  18. Профиль формата : High@L4.1
  19. Настройки формата : CABAC / 12 Ref Frames
  20. Параметр CABAC формата : Да
  21. Параметр RefFrames формата : 12 кадров
  22. Идентификатор кодека : V_MPEG4/ISO/AVC
  23. Продолжительность : 1 ч. 32 м.
  24. Битрейт : 6182 Кбит/сек
  25. Ширина : 1280 пикселей
  26. Высота : 544 пикселя
  27. Соотношение сторон : 2,35:1
  28. Режим частоты кадров : Переменный
  29. Частота кадров : 23,976 (23976/1000) кадра/сек
  30. Частота кадров в оригинале : 23,976 (24000/1001) кадра/сек
  31. Цветовое пространство : YUV
  32. Субдискретизация насыщенности : 4:2:0
  33. Битовая глубина : 8 бит
  34. Тип развёртки : Прогрессивная
  35. Бит/(Пиксели*Кадры) : 0.370
  36. Размер потока : 4,00 Гбайт (86%)
  37. Заголовок : Rip by grab777
  38. Библиотека кодирования : x264 core 148 r2665M a01e339
  39. Настройки программы : cabac=1 / ref=12 / deblock=1:-3:-3 / analyse=0x3:0x133 / me=umh / subme=10 / psy=1 / psy_rd=1.00:0.15 / mixed_ref=1 / me_range=32 / chroma_me=1 / trellis=2 / 8x8dct=1 / cqm=0 / deadzone=21,11 / fast_pskip=0 / chroma_qp_offset=-3 / threads=5 / lookahead_threads=1 / sliced_threads=0 / nr=0 / decimate=1 / interlaced=0 / bluray_compat=0 / constrained_intra=0 / bframes=10 / b_pyramid=2 / b_adapt=2 / b_bias=0 / direct=3 / weightb=1 / open_gop=0 / weightp=2 / keyint=230 / keyint_min=23 / scenecut=40 / intra_refresh=0 / rc_lookahead=40 / rc=crf / mbtree=1 / crf=13.0 / qcomp=0.90 / qpmin=3 / qpmax=69 / qpstep=4 / vbv_maxrate=40000 / vbv_bufsize=30000 / crf_max=31.0 / nal_hrd=none / filler=0 / ip_ratio=1.40 / aq=1:0.00
  40. Язык : English
  41. Default : Да
  42. Forced : Нет
  43.  
  44. Аудио #1
  45. Идентификатор : 2
  46. Формат : AC-3
  47. Формат/Информация : Audio Coding 3
  48. Параметр Endianness формата : Big
  49. Идентификатор кодека : A_AC3
  50. Продолжительность : 1 ч. 32 м.
  51. Вид битрейта : Постоянный
  52. Битрейт : 384 Кбит/сек
  53. Каналы : 6 каналов
  54. Расположение каналов : Front: L C R, Side: L R, LFE
  55. Частота : 48,0 КГц
  56. Частота кадров : 31,250 кадров/сек (1536 SPF)
  57. Битовая глубина : 16 бит
  58. Метод сжатия : С потерями
  59. Размер потока : 255 Мбайт (5%)
  60. Заголовок : Dub (iTunes)
  61. Язык : Russian
  62. ServiceKind/String : Complete Main
  63. Default : Да
  64. Forced : Да
  65.  
  66. Аудио #2
  67. Идентификатор : 3
  68. Формат : AC-3
  69. Формат/Информация : Audio Coding 3
  70. Параметр Endianness формата : Big
  71. Идентификатор кодека : A_AC3
  72. Продолжительность : 1 ч. 32 м.
  73. Вид битрейта : Постоянный
  74. Битрейт : 640 Кбит/сек
  75. Каналы : 6 каналов
  76. Расположение каналов : Front: L C R, Side: L R, LFE
  77. Частота : 48,0 КГц
  78. Частота кадров : 31,250 кадров/сек (1536 SPF)
  79. Битовая глубина : 16 бит
  80. Метод сжатия : С потерями
  81. Размер потока : 424 Мбайт (9%)
  82. Заголовок : Original
  83. Язык : English
  84. ServiceKind/String : Complete Main
  85. Default : Нет
  86. Forced : Нет
  87.  
  88. Текст
  89. Идентификатор : 4
  90. Формат : UTF-8
  91. Идентификатор кодека : S_TEXT/UTF8
  92. Идентификатор кодека/Информация : UTF-8 Plain Text
  93. Продолжительность : 1 ч. 27 м.
  94. Битрейт : 65 бит/сек
  95. ElementCount : 1737
  96. Размер потока : 42,2 Кбайт (0%)
  97. Заголовок : Full
  98. Язык : English
  99. Default : Нет
  100. Forced : Нет
  101.  
  102. Меню
  103. 00:00:00.000 : :Chapter 1
  104. 00:11:10.003 : :Chapter 2
  105. 00:22:31.016 : :Chapter 3
  106. 00:34:59.931 : :Chapter 4
  107. 00:46:09.934 : :Chapter 5
  108. 00:57:06.923 : :Chapter 6
  109. 01:07:08.900 : :Chapter 7
  110. 01:18:15.900 : :Chapter 8
  111. 01:27:11.893 : :Chapter 9
RAW Paste Data