TolstiyMob

Katanagatari Vol.3 Sento Tsurugi

Oct 16th, 2011
93
Never
Not a member of Pastebin yet? Sign Up, it unlocks many cool features!
  1. Disc Title: BDROM
  2. Disc Size: 16 906 554 330 bytes
  3. Protection: AACS
  4. BD-Java: No
  5. BDInfo: 0.5.6
  6.  
  7. Notes:
  8.  
  9. BDINFO HOME:
  10. Cinema Squid
  11. http://www.cinemasquid.com/blu-ray/tools/bdinfo
  12.  
  13. INCLUDES FORUMS REPORT FOR:
  14. AVS Forum Blu-ray Audio and Video Specifications Thread
  15. http://www.avsforum.com/avs-vb/showthread.php?t=1155731
  16.  
  17. ********************
  18. PLAYLIST: 00000.MPLS
  19. ********************
  20.  
  21. <--- BEGIN FORUMS PASTE --->
  22. [code]
  23. Total Video
  24. Title Codec Length Movie Size Disc Size Bitrate Bitrate Main Audio Track Secondary Audio Track
  25. ----- ------ ------- -------------- -------------- ------- ------- ------------------ ---------------------
  26. 00000.MPLS AVC 0:49:50 15 761 498 112 16 906 554 330 42,17 37,99 LPCM 2.0 2304Kbps (48kHz/24-bit)
  27. [/code]
  28.  
  29. [code]
  30.  
  31. DISC INFO:
  32.  
  33. Disc Title: BDROM
  34. Disc Size: 16 906 554 330 bytes
  35. Protection: AACS
  36. BD-Java: No
  37. BDInfo: 0.5.6
  38.  
  39. PLAYLIST REPORT:
  40.  
  41. Name: 00000.MPLS
  42. Length: 0:49:50 (h:m:s)
  43. Size: 15 761 498 112 bytes
  44. Total Bitrate: 42,17 Mbps
  45.  
  46. VIDEO:
  47.  
  48. Codec Bitrate Description
  49. ----- ------- -----------
  50. MPEG-4 AVC Video 37989 kbps 1080p / 23,976 fps / 16:9 / High Profile 4.1
  51.  
  52. AUDIO:
  53.  
  54. Codec Language Bitrate Description
  55. ----- -------- ------- -----------
  56. LPCM Audio Japanese 2304 kbps 2.0 / 48 kHz / 2304 kbps / 24-bit
  57.  
  58. FILES:
  59.  
  60. Name Time In Length Size Total Bitrate
  61. ---- ------- ------ ---- -------------
  62. 00000.M2TS 0:00:00.000 0:49:50.028 15 761 498 112 42 171
  63.  
  64. CHAPTERS:
  65.  
  66. Number Time In Length Avg Video Rate Max 1-Sec Rate Max 1-Sec Time Max 5-Sec Rate Max 5-Sec Time Max 10Sec Rate Max 10Sec Time Avg Frame Size Max Frame Size Max Frame Time
  67. ------ ------- ------ -------------- -------------- -------------- -------------- -------------- -------------- -------------- -------------- -------------- --------------
  68. 1 0:00:00.000 0:00:40.039 34 413 kbps 42 238 kbps 00:00:24.899 40 128 kbps 00:00:04.963 39 770 kbps 00:00:22.522 179 229 bytes 639 933 bytes 00:00:26.860
  69. 2 0:00:40.039 0:01:29.964 38 328 kbps 44 344 kbps 00:01:09.694 40 398 kbps 00:01:13.698 39 959 kbps 00:01:20.997 199 823 bytes 598 033 bytes 00:02:06.835
  70. 3 0:02:10.004 0:09:08.005 38 128 kbps 47 637 kbps 00:03:49.520 40 896 kbps 00:03:45.433 40 055 kbps 00:03:40.511 198 780 bytes 640 977 bytes 00:05:02.802
  71. 4 0:11:18.010 0:06:48.991 38 930 kbps 48 198 kbps 00:16:37.037 40 442 kbps 00:14:37.918 39 991 kbps 00:11:31.816 202 963 bytes 640 804 bytes 00:14:08.222
  72. 5 0:18:07.002 0:14:45.926 38 454 kbps 43 065 kbps 00:19:34.882 40 289 kbps 00:20:56.255 40 111 kbps 00:19:15.362 200 482 bytes 640 785 bytes 00:19:26.331
  73. 6 0:32:52.929 0:14:48.012 37 445 kbps 45 483 kbps 00:36:22.847 40 909 kbps 00:37:09.560 40 111 kbps 00:38:06.659 195 223 bytes 641 073 bytes 00:33:10.405
  74. 7 0:47:40.941 0:01:29.964 39 490 kbps 42 356 kbps 00:49:08.987 40 171 kbps 00:49:04.983 39 788 kbps 00:48:59.978 205 881 bytes 612 453 bytes 00:48:06.967
  75. 8 0:49:10.906 0:00:37.287 28 666 kbps 41 536 kbps 00:49:14.034 39 840 kbps 00:49:28.382 39 490 kbps 00:49:24.711 149 449 bytes 504 426 bytes 00:49:28.757
  76. 9 0:49:48.193 0:00:01.835 2 001 kbps 3 644 kbps 00:49:48.986 0 kbps 00:00:00.000 0 kbps 00:00:00.000 10 673 bytes 208 334 bytes 00:49:49.987
  77.  
  78. STREAM DIAGNOSTICS:
  79.  
  80. File PID Type Codec Language Seconds Bitrate Bytes Packets
  81. ---- --- ---- ----- -------- -------------- -------------- ------------- -----
  82. 00000.M2TS 4113 (0x1011) 0x1B AVC 2989,862 37 991 14 198 352 171 77 206 919
  83. 00000.M2TS 4352 (0x1100) 0x80 LPCM jpn (Japanese) 2989,862 2 311 863 520 664 4 784 048
  84.  
  85. [/code]
  86. <---- END FORUMS PASTE ---->
  87.  
  88. QUICK SUMMARY:
  89.  
  90. Disc Title: BDROM
  91. Disc Size: 16 906 554 330 bytes
  92. Protection: AACS
  93. BD-Java: No
  94. Playlist: 00000.MPLS
  95. Size: 15 761 498 112 bytes
  96. Length: 0:49:50
  97. Total Bitrate: 42,17 Mbps
  98. Video: MPEG-4 AVC Video / 37989 kbps / 1080p / 23,976 fps / 16:9 / High Profile 4.1
  99. Audio: Japanese / LPCM Audio / 2.0 / 48 kHz / 2304 kbps / 24-bit
  100.  
  101. ********************
  102. PLAYLIST: 00002.MPLS
  103. ********************
  104.  
  105. <--- BEGIN FORUMS PASTE --->
  106. [code]
  107. Total Video
  108. Title Codec Length Movie Size Disc Size Bitrate Bitrate Main Audio Track Secondary Audio Track
  109. ----- ------ ------- -------------- -------------- ------- ------- ------------------ ---------------------
  110. 00002.MPLS AVC 0:00:38 66 680 832 16 906 554 330 14,02 11,60 LPCM 2.0 1536Kbps (48kHz/16-bit)
  111. [/code]
  112.  
  113. [code]
  114.  
  115. DISC INFO:
  116.  
  117. Disc Title: BDROM
  118. Disc Size: 16 906 554 330 bytes
  119. Protection: AACS
  120. BD-Java: No
  121. BDInfo: 0.5.6
  122.  
  123. PLAYLIST REPORT:
  124.  
  125. Name: 00002.MPLS
  126. Length: 0:00:38 (h:m:s)
  127. Size: 66 680 832 bytes
  128. Total Bitrate: 14,02 Mbps
  129.  
  130. VIDEO:
  131.  
  132. Codec Bitrate Description
  133. ----- ------- -----------
  134. MPEG-4 AVC Video 11601 kbps 1080i / 29,970 fps / 16:9 / High Profile 4.1
  135.  
  136. AUDIO:
  137.  
  138. Codec Language Bitrate Description
  139. ----- -------- ------- -----------
  140. LPCM Audio Japanese 1536 kbps 2.0 / 48 kHz / 1536 kbps / 16-bit
  141.  
  142. FILES:
  143.  
  144. Name Time In Length Size Total Bitrate
  145. ---- ------- ------ ---- -------------
  146. 00003.M2TS 0:00:00.000 0:00:22.021 23 218 176 8 435
  147. 00002.M2TS 0:00:22.021 0:00:16.015 43 462 656 21 710
  148.  
  149. CHAPTERS:
  150.  
  151. Number Time In Length Avg Video Rate Max 1-Sec Rate Max 1-Sec Time Max 5-Sec Rate Max 5-Sec Time Max 10Sec Rate Max 10Sec Time Avg Frame Size Max Frame Size Max Frame Time
  152. ------ ------- ------ -------------- -------------- -------------- -------------- -------------- -------------- -------------- -------------- -------------- --------------
  153. 1 0:00:00.000 0:00:38.037 11 601 kbps 46 121 kbps 00:00:31.564 32 526 kbps 00:00:28.495 27 952 kbps 00:00:23.523 48 385 bytes 489 494 bytes 00:00:03.002
  154.  
  155. STREAM DIAGNOSTICS:
  156.  
  157. File PID Type Codec Language Seconds Bitrate Bytes Packets
  158. ---- --- ---- ----- -------- -------------- -------------- ------------- -----
  159. 00003.M2TS 4113 (0x1011) 0x1B AVC 21,889 6 281 17 184 086 93 744
  160. 00003.M2TS 4352 (0x1100) 0x80 LPCM jpn (Japanese) 21,889 1 552 4 246 420 26 430
  161. 00002.M2TS 4113 (0x1011) 0x1B AVC 15,883 19 128 37 974 761 206 633
  162. 00002.M2TS 4352 (0x1100) 0x80 LPCM jpn (Japanese) 15,883 1 555 3 087 692 19 218
  163.  
  164. [/code]
  165. <---- END FORUMS PASTE ---->
  166.  
  167. QUICK SUMMARY:
  168.  
  169. Disc Title: BDROM
  170. Disc Size: 16 906 554 330 bytes
  171. Protection: AACS
  172. BD-Java: No
  173. Playlist: 00002.MPLS
  174. Size: 66 680 832 bytes
  175. Length: 0:00:38
  176. Total Bitrate: 14,02 Mbps
  177. Video: MPEG-4 AVC Video / 11601 kbps / 1080i / 29,970 fps / 16:9 / High Profile 4.1
  178. Audio: Japanese / LPCM Audio / 2.0 / 48 kHz / 1536 kbps / 16-bit
  179.  
RAW Paste Data