GrabHD

Untitled

Feb 24th, 2020
118
Never
Not a member of Pastebin yet? Sign Up, it unlocks many cool features!
  1. Общее
  2. Уникальный идентификатор : 182563070817955787090199423398392460400 (0x89585E54E2D6706A909D083DF71D7470)
  3. Полное имя : D:\Раздача\Krik Tishyny.2019.WEB-DLRip-AVC.grab777.mkv
  4. Формат : Matroska
  5. Версия формата : Version 4 / Version 2
  6. Размер файла : 1,91 Гбайт
  7. Продолжительность : 1 ч. 36 м.
  8. Общий поток : 2817 Кбит/сек
  9. Название фильма : Крик тишины.2019.WEB-DLRip-AVC.grab777
  10. Дата кодирования : UTC 2020-02-24 19:26:42
  11. Программа кодирования : mkvmerge v7.3.0 ('Nouages') 64bit built on Oct 22 2014 18:53:34
  12. Библиотека кодирования : libebml v1.3.0 + libmatroska v1.4.1
  13.  
  14. Видео
  15. Идентификатор : 1
  16. Формат : AVC
  17. Формат/Информация : Advanced Video Codec
  18. Профиль формата : High@L4.1
  19. Настройки формата : CABAC / 12 Ref Frames
  20. Параметр CABAC формата : Да
  21. Параметр RefFrames формата : 12 кадров
  22. Идентификатор кодека : V_MPEG4/ISO/AVC
  23. Продолжительность : 1 ч. 36 м.
  24. Битрейт : 2496 Кбит/сек
  25. Ширина : 1024 пикселя
  26. Высота : 552 пикселя
  27. Соотношение сторон : 1,85:1
  28. Режим частоты кадров : Постоянный
  29. Частота кадров : 25,000 кадров/сек
  30. Цветовое пространство : YUV
  31. Субдискретизация насыщенности : 4:2:0
  32. Битовая глубина : 8 бит
  33. Тип развёртки : Прогрессивная
  34. Бит/(Пиксели*Кадры) : 0.177
  35. Размер потока : 1,69 Гбайт (89%)
  36. Заголовок : Rip by grab777
  37. Библиотека кодирования : x264 core 148 r2665M a01e339
  38. Настройки программы : cabac=1 / ref=12 / deblock=1:-2:-2 / analyse=0x3:0x133 / me=umh / subme=10 / psy=1 / psy_rd=1.00:0.15 / mixed_ref=1 / me_range=32 / chroma_me=1 / trellis=2 / 8x8dct=1 / cqm=0 / deadzone=21,11 / fast_pskip=0 / chroma_qp_offset=-3 / threads=5 / lookahead_threads=1 / sliced_threads=0 / nr=0 / decimate=1 / interlaced=0 / bluray_compat=0 / constrained_intra=0 / bframes=10 / b_pyramid=2 / b_adapt=2 / b_bias=0 / direct=3 / weightb=1 / open_gop=0 / weightp=2 / keyint=250 / keyint_min=25 / scenecut=40 / intra_refresh=0 / rc_lookahead=40 / rc=crf / mbtree=1 / crf=15.9 / qcomp=0.90 / qpmin=3 / qpmax=69 / qpstep=4 / vbv_maxrate=40000 / vbv_bufsize=30000 / crf_max=31.0 / nal_hrd=none / filler=0 / ip_ratio=1.40 / aq=1:0.00
  39. Язык : Russian
  40. Default : Да
  41. Forced : Нет
  42.  
  43. Аудио
  44. Идентификатор : 2
  45. Формат : AC-3
  46. Формат/Информация : Audio Coding 3
  47. Параметр Endianness формата : Big
  48. Идентификатор кодека : A_AC3
  49. Продолжительность : 1 ч. 36 м.
  50. Вид битрейта : Постоянный
  51. Битрейт : 320 Кбит/сек
  52. Каналы : 6 каналов
  53. Расположение каналов : Front: L C R, Side: L R, LFE
  54. Частота : 48,0 КГц
  55. Частота кадров : 31,250 кадров/сек (1536 SPF)
  56. Битовая глубина : 16 бит
  57. Метод сжатия : С потерями
  58. Размер потока : 222 Мбайт (11%)
  59. Заголовок : Original (R5)
  60. Язык : Russian
  61. ServiceKind/String : Complete Main
  62. Default : Да
  63. Forced : Нет
  64.  
  65. Меню
  66. 00:00:00.000 : :Глава 1
  67. 00:06:46.000 : :Глава 2
  68. 00:13:35.526 : :Глава 3
  69. 00:20:56.000 : :Глава 4
  70. 00:27:44.000 : :Глава 5
  71. 00:33:47.488 : :Глава 6
  72. 00:39:04.637 : :Глава 7
  73. 00:48:08.321 : :Глава 8
RAW Paste Data