Interfilm

Untitled

Jun 7th, 2014
260
Never
Not a member of Pastebin yet? Sign Up, it unlocks many cool features!
  1. Общее
  2. The.Motel.Life.2012.Blu.Ray.1080p.CINEMANIA.mkv
  3. Формат : Matroska
  4. Версия формата : Version 4 / Version 2
  5. Размер файла : 7,17 Гбайт
  6. Продолжительность : 1 ч. 25 м.
  7. Общий поток : 12,0 Мбит/сек
  8. Название фильма : Release Group CINEMANIA
  9. Дата кодирования : UTC 2014-06-07 21:31:47
  10. Программа кодирования : mkvmerge v6.9.1 ('Blue Panther') 64bit built on Apr 18 2014 18:23:38
  11. Библиотека кодирования : libebml v1.3.0 + libmatroska v1.4.1
  12.  
  13. Видео
  14. Идентификатор : 1
  15. Формат : AVC
  16. Формат/Информация : Advanced Video Codec
  17. Профиль формата : High@L4.1
  18. Параметр CABAC формата : Да
  19. Параметр ReFrames формата : 5 кадров
  20. Идентификатор кодека : V_MPEG4/ISO/AVC
  21. Продолжительность : 1 ч. 25 м.
  22. Битрейт : 9514 Кбит/сек
  23. Ширина : 1920 пикселей
  24. Высота : 800 пикселей
  25. Соотношение сторон : 2,40:1
  26. Режим частоты кадров : Постоянный
  27. Частота кадров : 23,976 кадра/сек
  28. Цветовое пространство : YUV
  29. Субдискретизация насыщенности : 4:2:0
  30. Битовая глубина : 8 бит
  31. Тип развёртки : Прогрессивная
  32. Бит/(Пиксели*Кадры) : 0.258
  33. Размер потока : 5,52 Гбайт (77%)
  34. Заголовок : Release Group CINEMANIA
  35. Библиотека кодирования : x264 core 142 r2431 ac76440
  36. Настройки программы : cabac=1 / ref=5 / deblock=1:0:0 / analyse=0x3:0x133 / me=umh / subme=7 / psy=1 / psy_rd=1.00:0.00 / mixed_ref=1 / me_range=16 / chroma_me=1 / trellis=1 / 8x8dct=1 / cqm=0 / deadzone=21,11 / fast_pskip=0 / chroma_qp_offset=-2 / threads=12 / lookahead_threads=2 / sliced_threads=0 / nr=0 / decimate=1 / interlaced=0 / bluray_compat=0 / constrained_intra=0 / bframes=3 / b_pyramid=2 / b_adapt=1 / b_bias=0 / direct=1 / weightb=1 / open_gop=0 / weightp=2 / keyint=240 / keyint_min=23 / scenecut=40 / intra_refresh=0 / rc_lookahead=40 / rc=2pass / mbtree=1 / bitrate=9514 / ratetol=1.0 / qcomp=0.60 / qpmin=0 / qpmax=69 / qpstep=4 / cplxblur=20.0 / qblur=0.5 / ip_ratio=1.40 / aq=1:1.00
  37. Язык : English
  38. Default : Да
  39. Forced : Нет
  40.  
  41. Аудио #1
  42. Идентификатор : 2
  43. Формат : AC-3
  44. Формат/Информация : Audio Coding 3
  45. Расширение режима : CM (complete main)
  46. Параметр Endianness формата : Big
  47. Идентификатор кодека : A_AC3
  48. Продолжительность : 1 ч. 25 м.
  49. Вид битрейта : Постоянный
  50. Битрейт : 384 Кбит/сек
  51. Каналы : 6 каналов
  52. Расположение каналов : Front: L C R, Side: L R, LFE
  53. Частота : 48,0 КГц
  54. Битовая глубина : 16 бит
  55. Метод сжатия : С потерями
  56. Размер потока : 234 Мбайт (3%)
  57. Заголовок : Влад и Снежинка
  58. Язык : Russian
  59. Default : Да
  60. Forced : Да
  61.  
  62. Аудио #2
  63. Идентификатор : 3
  64. Формат : DTS
  65. Формат/Информация : Digital Theater Systems
  66. Режим : 16
  67. Параметр Endianness формата : Big
  68. Идентификатор кодека : A_DTS
  69. Продолжительность : 1 ч. 25 м.
  70. Вид битрейта : Постоянный
  71. Битрейт : 1509 Кбит/сек
  72. Каналы : 6 каналов
  73. Расположение каналов : Front: L C R, Side: L R, LFE
  74. Частота : 48,0 КГц
  75. Битовая глубина : 24 бит
  76. Метод сжатия : С потерями
  77. Размер потока : 919 Мбайт (13%)
  78. Язык : English
  79. Default : Нет
  80. Forced : Нет
  81.  
  82. Аудио #3
  83. Идентификатор : 4
  84. Формат : AC-3
  85. Формат/Информация : Audio Coding 3
  86. Расширение режима : CM (complete main)
  87. Параметр Endianness формата : Big
  88. Идентификатор кодека : A_AC3
  89. Продолжительность : 1 ч. 25 м.
  90. Вид битрейта : Постоянный
  91. Битрейт : 640 Кбит/сек
  92. Каналы : 6 каналов
  93. Расположение каналов : Front: L C R, Side: L R, LFE
  94. Частота : 48,0 КГц
  95. Битовая глубина : 16 бит
  96. Метод сжатия : С потерями
  97. Размер потока : 390 Мбайт (5%)
  98. Язык : English
  99. Default : Нет
  100. Forced : Нет
  101.  
  102. Текст
  103. Идентификатор : 5
  104. Формат : UTF-8
  105. Идентификатор кодека : S_TEXT/UTF8
  106. Идентификатор кодека/Информация : UTF-8 Plain Text
  107. Язык : English
  108. Default : Нет
  109. Forced : Нет
RAW Paste Data