SHARE
TWEET

Untitled

a guest Sep 9th, 2017 137 Never
Not a member of Pastebin yet? Sign Up, it unlocks many cool features!
  1. REM GENRE Soundtrack
  2. REM DATE 2011
  3. TITLE "これはゾンビですか? オリジナルサウンドトラック: めっちゃサントラ"
  4. FILE "CDImage.ape" WAVE
  5.   TRACK 01 AUDIO
  6.     TITLE "曇りのち晴れ"
  7.     PERFORMER "柿島伸次"
  8.     INDEX 01 00:00:00
  9.   TRACK 02 AUDIO
  10.     TITLE "天気予報なんて当てにならない"
  11.     PERFORMER "柿島伸次"
  12.     INDEX 01 01:13:60
  13.   TRACK 03 AUDIO
  14.     TITLE "俺、ゾンビっす!"
  15.     PERFORMER "柿島伸次"
  16.     INDEX 01 02:20:21
  17.   TRACK 04 AUDIO
  18.     TITLE "ただいま"
  19.     PERFORMER "柿島伸次"
  20.     INDEX 01 03:38:64
  21.   TRACK 05 AUDIO
  22.     TITLE "真夜中の墓地"
  23.     PERFORMER "柿島伸次"
  24.     INDEX 01 04:35:47
  25.   TRACK 06 AUDIO
  26.     TITLE "それ! キックじゃね~!"
  27.     PERFORMER "柿島伸次"
  28.     INDEX 01 05:28:69
  29.   TRACK 07 AUDIO
  30.     TITLE "ご飯まだ~?"
  31.     PERFORMER "柿島伸次"
  32.     INDEX 01 06:35:38
  33.   TRACK 08 AUDIO
  34.     TITLE "お茶の間と扇風機"
  35.     PERFORMER "柿島伸次"
  36.     INDEX 01 07:32:29
  37.   TRACK 09 AUDIO
  38.     TITLE "出席番号六億三千四百五十二万六千三百七十九"
  39.     PERFORMER "柿島伸次"
  40.     INDEX 01 09:46:72
  41.   TRACK 10 AUDIO
  42.     TITLE "お前が欲しい!"
  43.     PERFORMER "柿島伸次"
  44.     INDEX 01 10:36:65
  45.   TRACK 11 AUDIO
  46.     TITLE "100%"
  47.     PERFORMER "柿島伸次"
  48.     INDEX 01 11:47:39
  49.   TRACK 12 AUDIO
  50.     TITLE "めっちゃ魔装変身"
  51.     PERFORMER "柿島伸次"
  52.     INDEX 01 13:27:67
  53.   TRACK 13 AUDIO
  54.     TITLE "バーッとやってギーだ!"
  55.     PERFORMER "柿島伸次"
  56.     INDEX 01 14:48:40
  57.   TRACK 14 AUDIO
  58.     TITLE "120%"
  59.     PERFORMER "柿島伸次"
  60.     INDEX 01 15:52:65
  61.   TRACK 15 AUDIO
  62.     TITLE "ノモブヨ、ヲシ、ハシタワ、ドゲダ、グンミーチャ、デー、リブラ!"
  63.     PERFORMER "柿島伸次"
  64.     INDEX 01 16:52:28
  65.   TRACK 16 AUDIO
  66.     TITLE "ZOMBIE アイキャッチA"
  67.     PERFORMER "柿島伸次"
  68.     INDEX 01 18:27:72
  69.   TRACK 17 AUDIO
  70.     TITLE "惨劇の記憶"
  71.     PERFORMER "柿島伸次"
  72.     INDEX 01 18:38:26
  73.   TRACK 18 AUDIO
  74.     TITLE "なんだこの美味さは~"
  75.     PERFORMER "柿島伸次"
  76.     INDEX 01 20:47:55
  77.   TRACK 19 AUDIO
  78.     TITLE "またまた、ただいま~"
  79.     PERFORMER "柿島伸次"
  80.     INDEX 01 21:54:54
  81.   TRACK 20 AUDIO
  82.     TITLE "傷"
  83.     PERFORMER "柿島伸次"
  84.     INDEX 01 23:07:45
  85.   TRACK 21 AUDIO
  86.     TITLE "チェロがいい音だぜ!"
  87.     PERFORMER "柿島伸次"
  88.     INDEX 01 25:13:63
  89.   TRACK 22 AUDIO
  90.     TITLE "秘剣! 燕返し"
  91.     PERFORMER "柿島伸次"
  92.     INDEX 01 26:26:58
  93.   TRACK 23 AUDIO
  94.     TITLE "抜き足、差し足"
  95.     PERFORMER "柿島伸次"
  96.     INDEX 01 27:45:31
  97.   TRACK 24 AUDIO
  98.     TITLE "ZOMBIE アイキャッチB"
  99.     PERFORMER "柿島伸次"
  100.     INDEX 01 28:51:44
  101.   TRACK 25 AUDIO
  102.     TITLE "この糞虫が!"
  103.     PERFORMER "柿島伸次"
  104.     INDEX 01 29:00:08
  105.   TRACK 26 AUDIO
  106.     TITLE "UFOを信じますか?"
  107.     PERFORMER "柿島伸次"
  108.     INDEX 01 30:08:10
  109.   TRACK 27 AUDIO
  110.     TITLE "ネクロマンサー"
  111.     PERFORMER "柿島伸次"
  112.     INDEX 01 32:10:32
  113.   TRACK 28 AUDIO
  114.     TITLE "惨劇の記録"
  115.     PERFORMER "柿島伸次"
  116.     INDEX 01 33:21:27
  117.   TRACK 29 AUDIO
  118.     TITLE "妄想"
  119.     PERFORMER "柿島伸次"
  120.     INDEX 01 34:30:15
  121.   TRACK 30 AUDIO
  122.     TITLE "忘却"
  123.     PERFORMER "柿島伸次"
  124.     INDEX 01 35:32:39
  125.   TRACK 31 AUDIO
  126.     TITLE "お兄ちゃん、お風呂にする?"
  127.     PERFORMER "柿島伸次"
  128.     INDEX 01 37:29:31
  129.   TRACK 32 AUDIO
  130.     TITLE "おはよう! お兄ちゃん!!"
  131.     PERFORMER "柿島伸次"
  132.     INDEX 01 38:28:28
  133.   TRACK 33 AUDIO
  134.     TITLE "良いことあるかな? やっぱダメか?"
  135.     PERFORMER "柿島伸次"
  136.     INDEX 01 39:26:67
  137.   TRACK 34 AUDIO
  138.     TITLE "ゾンビワルツ"
  139.     PERFORMER "柿島伸次"
  140.     INDEX 01 40:34:35
  141.   TRACK 35 AUDIO
  142.     TITLE "勝負だ!"
  143.     PERFORMER "柿島伸次"
  144.     INDEX 01 41:41:72
  145.   TRACK 36 AUDIO
  146.     TITLE "勝負止めた (>_<)"
  147.     PERFORMER "柿島伸次"
  148.     INDEX 01 42:53:66
  149.   TRACK 37 AUDIO
  150.     TITLE "夕暮れの風"
  151.     PERFORMER "柿島伸次"
  152.     INDEX 01 44:05:51
  153.   TRACK 38 AUDIO
  154.     TITLE "明日も遊ぼう!!"
  155.     PERFORMER "柿島伸次"
  156.     INDEX 01 45:18:22
  157.   TRACK 39 AUDIO
  158.     TITLE "また来週!"
  159.     PERFORMER "柿島伸次"
  160.     INDEX 01 47:34:68
  161.   TRACK 40 AUDIO
  162.     TITLE "魔・カ・セ・テ Tonight ~ TV SIZE EDIT"
  163.     PERFORMER "野水いおり"
  164.     INDEX 01 47:54:24
  165.   TRACK 41 AUDIO
  166.     TITLE "気づいてゾンビさま、私はクラスメイトです ~ TV SIZE EDIT"
  167.     PERFORMER "山口理恵 with manzo"
  168.     INDEX 01 49:27:67
RAW Paste Data
We use cookies for various purposes including analytics. By continuing to use Pastebin, you agree to our use of cookies as described in the Cookies Policy. OK, I Understand
 
Top