Guest User

Deep.Impact.1998.1080p.MULTi.BluRay.x264-NOWiNHD

a guest
May 9th, 2019
42
Never
Not a member of Pastebin yet? Sign Up, it unlocks many cool features!
  1. General
  2. Unique ID                                : 194384548877273656957277926730846270434 (0x923D1A33034B2BEAB227EA27558173E2)
  3. Complete name                            : Deep.Impact.1998.1080p.MULTi.BluRay.x264-NOWiNHD.mkv
  4. Format                                   : Matroska
  5. Format version                           : Version 2
  6. File size                                : 7.95 GiB
  7. Duration                                 : 2 h 1 min
  8. Overall bit rate                         : 9 387 kb/s
  9. Encoded date                             : UTC 2009-09-05 17:38:44
  10. Writing application                      : mkvmerge v2.9.7 ('Tenderness') built on Jul  1 2009 18:43:35
  11. Writing library                          : libebml v0.7.7 + libmatroska v0.8.1
  12.  
  13. Video
  14. ID                                       : 1
  15. Format                                   : AVC
  16. Format/Info                              : Advanced Video Codec
  17. Format profile                           : High@L4.1
  18. Format settings                          : CABAC / 5 Ref Frames
  19. Format settings, CABAC                   : Yes
  20. Format settings, Reference frames        : 5 frames
  21. Codec ID                                 : V_MPEG4/ISO/AVC
  22. Duration                                 : 2 h 1 min
  23. Bit rate                                 : 8 105 kb/s
  24. Width                                    : 1 920 pixels
  25. Height                                   : 816 pixels
  26. Display aspect ratio                     : 2.35:1
  27. Frame rate mode                          : Constant
  28. Frame rate                               : 23.976 FPS
  29. Color space                              : YUV
  30. Chroma subsampling                       : 4:2:0
  31. Bit depth                                : 8 bits
  32. Scan type                                : Progressive
  33. Bits/(Pixel*Frame)                       : 0.216
  34. Stream size                              : 6.71 GiB (84%)
  35. Writing library                          : x264 core 75 r1247 b3efbe5
  36. Encoding settings                        : cabac=1 / ref=5 / deblock=1:0:0 / analyse=0x3:0x133 / me=umh / subme=7 / psy=1 / psy_rd=1.0:0.0 / mixed_ref=1 / me_range=16 / chroma_me=1 / trellis=1 / 8x8dct=1 / cqm=0 / deadzone=21,11 / chroma_qp_offset=-2 / threads=6 / nr=0 / decimate=1 / mbaff=0 / bframes=3 / b_pyramid=0 / b_adapt=1 / b_bias=0 / direct=1 / wpredb=1 / keyint=250 / keyint_min=25 / scenecut=40 / rc_lookahead=40 / rc=2pass / mbtree=1 / bitrate=8105 / ratetol=1.0 / qcomp=0.60 / qpmin=10 / qpmax=51 / qpstep=4 / cplxblur=20.0 / qblur=0.5 / ip_ratio=1.40 / aq=1:1.00
  37. Language                                 : English
  38. Default                                  : Yes
  39. Forced                                   : No
  40.  
  41. Audio #1
  42. ID                                       : 2
  43. Format                                   : AC-3
  44. Format/Info                              : Audio Coding 3
  45. Commercial name                          : Dolby Digital
  46. Codec ID                                 : A_AC3
  47. Duration                                 : 2 h 1 min
  48. Bit rate mode                            : Constant
  49. Bit rate                                 : 640 kb/s
  50. Channel(s)                               : 6 channels
  51. Channel layout                           : L R C LFE Ls Rs
  52. Sampling rate                            : 48.0 kHz
  53. Frame rate                               : 31.250 FPS (1536 SPF)
  54. Bit depth                                : 16 bits
  55. Compression mode                         : Lossy
  56. Stream size                              : 555 MiB (7%)
  57. Title                                    : Ac3 640 Kbps
  58. Language                                 : English
  59. Service kind                             : Complete Main
  60. Default                                  : No
  61. Forced                                   : No
  62.  
  63. Audio #2
  64. ID                                       : 3
  65. Format                                   : AC-3
  66. Format/Info                              : Audio Coding 3
  67. Commercial name                          : Dolby Digital
  68. Codec ID                                 : A_AC3
  69. Duration                                 : 2 h 1 min
  70. Bit rate mode                            : Constant
  71. Bit rate                                 : 640 kb/s
  72. Channel(s)                               : 6 channels
  73. Channel layout                           : L R C LFE Ls Rs
  74. Sampling rate                            : 48.0 kHz
  75. Frame rate                               : 31.250 FPS (1536 SPF)
  76. Bit depth                                : 16 bits
  77. Compression mode                         : Lossy
  78. Stream size                              : 555 MiB (7%)
  79. Title                                    : Ac3 640 Kbps
  80. Language                                 : French
  81. Service kind                             : Complete Main
  82. Default                                  : Yes
  83. Forced                                   : Yes
  84.  
  85. Text #1
  86. ID                                       : 4
  87. Format                                   : UTF-8
  88. Codec ID                                 : S_TEXT/UTF8
  89. Codec ID/Info                            : UTF-8 Plain Text
  90. Language                                 : English
  91. Default                                  : No
  92. Forced                                   : No
  93.  
  94. Text #2
  95. ID                                       : 5
  96. Format                                   : UTF-8
  97. Codec ID                                 : S_TEXT/UTF8
  98. Codec ID/Info                            : UTF-8 Plain Text
  99. Title                                    : Forced
  100. Language                                 : French
  101. Default                                  : Yes
  102. Forced                                   : Yes
  103.  
  104. Text #3
  105. ID                                       : 6
  106. Format                                   : UTF-8
  107. Codec ID                                 : S_TEXT/UTF8
  108. Codec ID/Info                            : UTF-8 Plain Text
  109. Language                                 : French
  110. Default                                  : No
  111. Forced                                   : No
RAW Paste Data