iMN0

Scalphunters.1968.1080p.BluRay.x264-VETO

Jul 14th, 2021
101
Never
Not a member of Pastebin yet? Sign Up, it unlocks many cool features!
  1. General
  2. Complete name : Scalphunters.1968.1080p.BluRay.x264-VETO.mkv
  3. Format : Matroska
  4. Format version : Version 2
  5. File size : 7.65 GiB
  6. Duration : 1 h 43 min
  7. Overall bit rate : 10.6 Mb/s
  8. Writing application : mkvmerge v4.1.1 ('Bouncin' Back') built on Jul 3 2010 22:54:08
  9. Writing library : libebml v1.0.0 + libmatroska v1.0
  10.  
  11. Video
  12. ID : 1
  13. Format : AVC
  14. Format/Info : Advanced Video Codec
  15. Format profile : High@L4.1
  16. Format settings : CABAC / 5 Ref Frames
  17. Format settings, CABAC : Yes
  18. Format settings, Reference frames : 5 frames
  19. Codec ID : V_MPEG4/ISO/AVC
  20. Duration : 1 h 43 min
  21. Bit rate : 9 080 kb/s
  22. Width : 1 920 pixels
  23. Height : 824 pixels
  24. Display aspect ratio : 2.35:1
  25. Frame rate mode : Constant
  26. Frame rate : 23.976 (24000/1001) FPS
  27. Color space : YUV
  28. Chroma subsampling : 4:2:0
  29. Bit depth : 8 bits
  30. Scan type : Progressive
  31. Bits/(Pixel*Frame) : 0.239
  32. Stream size : 6.41 GiB (84%)
  33. Writing library : x264 core 130 r2273 b3065e6
  34. Encoding settings : cabac=1 / ref=5 / deblock=1:0:0 / analyse=0x3:0x133 / me=umh / subme=7 / psy=1 / psy_rd=1.00:0.00 / mixed_ref=1 / me_range=16 / chroma_me=1 / trellis=1 / 8x8dct=1 / cqm=0 / deadzone=21,11 / fast_pskip=0 / chroma_qp_offset=-2 / threads=12 / lookahead_threads=2 / sliced_threads=0 / nr=0 / decimate=1 / interlaced=0 / bluray_compat=0 / constrained_intra=0 / bframes=3 / b_pyramid=2 / b_adapt=1 / b_bias=0 / direct=1 / weightb=1 / open_gop=0 / weightp=2 / keyint=240 / keyint_min=23 / scenecut=40 / intra_refresh=0 / rc_lookahead=40 / rc=2pass / mbtree=1 / bitrate=9080 / ratetol=1.0 / qcomp=0.60 / qpmin=10 / qpmax=69 / qpstep=4 / cplxblur=20.0 / qblur=0.5 / ip_ratio=1.40 / aq=1:1.00
  35. Language : English
  36. Default : Yes
  37. Forced : No
  38.  
  39. Audio
  40. ID : 2
  41. Format : DTS
  42. Format/Info : Digital Theater Systems
  43. Codec ID : A_DTS
  44. Duration : 1 h 43 min
  45. Bit rate mode : Constant
  46. Bit rate : 1 509 kb/s
  47. Channel(s) : 6 channels
  48. Channel(s)_Original : 2 channels
  49. ChannelLayout_Original : L R
  50. Sampling rate : 48.0 kHz
  51. Frame rate : 93.750 FPS (512 SPF)
  52. Bit depth : 16 bits
  53. Compression mode : Lossy
  54. Stream size : 1.09 GiB (14%)
  55. Language : English
  56. Default : Yes
  57. Forced : No
  58.  
  59. Menu
  60. 00:00:00.000 : en:00:00:00.000
  61. 00:09:12.093 : en:00:09:12.093
  62. 00:17:50.110 : en:00:17:50.110
  63. 00:25:13.386 : en:00:25:13.386
  64. 00:33:59.454 : en:00:33:59.454
  65. 00:43:34.111 : en:00:43:34.111
  66. 00:50:38.994 : en:00:50:38.994
  67. 01:00:11.983 : en:01:00:11.983
  68. 01:08:03.120 : en:01:08:03.120
  69. 01:15:00.913 : en:01:15:00.913
  70. 01:24:34.027 : en:01:24:34.027
  71. 01:33:32.565 : en:01:33:32.565
  72. 01:43:25.240 : en:01:43:25.240
RAW Paste Data