Advertisement
Guest User

Untitled

a guest
Jul 19th, 2021
46
0
Never
Not a member of Pastebin yet? Sign Up, it unlocks many cool features!
text 22.04 KB | None | 0 0
  1. General
  2. Format : MPEG-4
  3. Format profile : Base Media
  4. Codec ID : isom (isom/iso2/avc1/mp41)
  5. File size : 3.21 GiB
  6. Duration : 45 min 37 s
  7. Overall bit rate : 10.1 Mb/s
  8. Writing application : Lavf57.71.100
  9.  
  10. Video
  11. ID : 2
  12. Format : AVC
  13. Format/Info : Advanced Video Codec
  14. Format profile : High@L4.1
  15. Format settings : CABAC / 4 Ref Frames
  16. Format settings, CABAC : Yes
  17. Format settings, Reference frames : 4 frames
  18. Codec ID : avc1
  19. Codec ID/Info : Advanced Video Coding
  20. Duration : 45 min 37 s
  21. Bit rate : 9 810 kb/s
  22. Width : 3 840 pixels
  23. Height : 1 920 pixels
  24. Display aspect ratio : 2.000
  25. Frame rate mode : Constant
  26. Frame rate : 60.000 FPS
  27. Color space : YUV
  28. Chroma subsampling : 4:2:0
  29. Bit depth : 8 bits
  30. Scan type : Progressive
  31. Bits/(Pixel*Frame) : 0.022
  32. Stream size : 3.13 GiB (97%)
  33. Writing library : x264 core 148
  34. Encoding settings : cabac=1 / ref=3 / deblock=1:0:0 / analyse=0x3:0x113 / me=hex / subme=7 / psy=1 / psy_rd=1.00:0.00 / mixed_ref=1 / me_range=16 / chroma_me=1 / trellis=1 / 8x8dct=1 / cqm=0 / deadzone=21,11 / fast_pskip=1 / chroma_qp_offset=-2 / threads=48 / lookahead_threads=8 / sliced_threads=0 / nr=0 / decimate=1 / interlaced=0 / bluray_compat=0 / constrained_intra=0 / bframes=3 / b_pyramid=2 / b_adapt=1 / b_bias=0 / direct=1 / weightb=1 / open_gop=0 / weightp=2 / keyint=300 / keyint_min=30 / scenecut=40 / intra_refresh=0 / rc_lookahead=40 / rc=crf / mbtree=1 / crf=22.0 / qcomp=0.60 / qpmin=0 / qpmax=69 / qpstep=4 / ip_ratio=1.40 / aq=1:1.00
  35. Codec configuration box : avcC
  36.  
  37.  
  38. General
  39. Format : MPEG-4
  40. Format profile : Base Media
  41. Codec ID : isom (isom/iso2/avc1/mp41)
  42. File size : 4.58 GiB
  43. Duration : 40 min 33 s
  44. Overall bit rate : 16.2 Mb/s
  45. Writing application : Lavf57.71.100
  46.  
  47. Video
  48. ID : 2
  49. Format : AVC
  50. Format/Info : Advanced Video Codec
  51. Format profile : High@L4.1
  52. Format settings : CABAC / 4 Ref Frames
  53. Format settings, CABAC : Yes
  54. Format settings, Reference frames : 4 frames
  55. Codec ID : avc1
  56. Codec ID/Info : Advanced Video Coding
  57. Duration : 40 min 33 s
  58. Bit rate : 15.9 Mb/s
  59. Width : 3 840 pixels
  60. Height : 1 920 pixels
  61. Display aspect ratio : 2.000
  62. Frame rate mode : Constant
  63. Frame rate : 59.940 (60000/1001) FPS
  64. Color space : YUV
  65. Chroma subsampling : 4:2:0
  66. Bit depth : 8 bits
  67. Scan type : Progressive
  68. Bits/(Pixel*Frame) : 0.036
  69. Stream size : 4.51 GiB (98%)
  70. Writing library : x264 core 148
  71. Encoding settings : cabac=1 / ref=3 / deblock=1:0:0 / analyse=0x3:0x113 / me=hex / subme=7 / psy=1 / psy_rd=1.00:0.00 / mixed_ref=1 / me_range=16 / chroma_me=1 / trellis=1 / 8x8dct=1 / cqm=0 / deadzone=21,11 / fast_pskip=1 / chroma_qp_offset=-2 / threads=48 / lookahead_threads=8 / sliced_threads=0 / nr=0 / decimate=1 / interlaced=0 / bluray_compat=0 / constrained_intra=0 / bframes=3 / b_pyramid=2 / b_adapt=1 / b_bias=0 / direct=1 / weightb=1 / open_gop=0 / weightp=2 / keyint=300 / keyint_min=30 / scenecut=40 / intra_refresh=0 / rc_lookahead=40 / rc=crf / mbtree=1 / crf=22.0 / qcomp=0.60 / qpmin=0 / qpmax=69 / qpstep=4 / ip_ratio=1.40 / aq=1:1.00
  72. Language : English
  73. Color range : Limited
  74. Color primaries : BT.709
  75. Transfer characteristics : BT.709
  76. Matrix coefficients : BT.709
  77. Codec configuration box : avcC
  78.  
  79.  
  80. General
  81. Format : MPEG-4
  82. Format profile : Base Media
  83. Codec ID : isom (isom/iso2/avc1/mp41)
  84. File size : 1.44 GiB
  85. Duration : 13 min 12 s
  86. Overall bit rate : 15.6 Mb/s
  87. Writing application : Lavf58.29.100
  88.  
  89. Video
  90. ID : 1
  91. Format : AVC
  92. Format/Info : Advanced Video Codec
  93. Format profile : High@L5.1
  94. Format settings : CABAC / 4 Ref Frames
  95. Format settings, CABAC : Yes
  96. Format settings, Reference frames : 4 frames
  97. Codec ID : avc1
  98. Codec ID/Info : Advanced Video Coding
  99. Duration : 13 min 12 s
  100. Bit rate : 15.4 Mb/s
  101. Width : 3 840 pixels
  102. Height : 1 920 pixels
  103. Display aspect ratio : 2.000
  104. Frame rate mode : Variable
  105. Frame rate : 29.970 (29970/1000) FPS
  106. Minimum frame rate : 22.037 FPS
  107. Maximum frame rate : 29.970 FPS
  108. Color space : YUV
  109. Chroma subsampling : 4:2:0
  110. Bit depth : 8 bits
  111. Scan type : Progressive
  112. Bits/(Pixel*Frame) : 0.070
  113. Stream size : 1.42 GiB (98%)
  114. Writing library : x264 core 157 r2969 d4099dd
  115. Encoding settings : cabac=1 / ref=2 / deblock=1:0:0 / analyse=0x3:0x113 / me=hex / subme=4 / psy=1 / psy_rd=1.00:0.00 / mixed_ref=0 / me_range=16 / chroma_me=1 / trellis=1 / 8x8dct=1 / cqm=0 / deadzone=21,11 / fast_pskip=1 / chroma_qp_offset=0 / threads=4 / lookahead_threads=1 / sliced_threads=0 / nr=0 / decimate=1 / interlaced=0 / bluray_compat=0 / constrained_intra=0 / bframes=3 / b_pyramid=2 / b_adapt=1 / b_bias=0 / direct=1 / weightb=1 / open_gop=0 / weightp=1 / keyint=310 / keyint_min=29 / scenecut=40 / intra_refresh=0 / rc_lookahead=20 / rc=crf / mbtree=1 / crf=21.0 / qcomp=0.60 / qpmin=0 / qpmax=69 / qpstep=4 / vbv_maxrate=19000 / vbv_bufsize=19000 / crf_max=0.0 / nal_hrd=none / filler=0 / ip_ratio=1.40 / aq=1:1.00
  116. Codec configuration box : avcC
  117.  
  118.  
  119. General
  120. Format : MPEG-4
  121. Format profile : Base Media
  122. Codec ID : isom (isom/iso2/avc1/mp41)
  123. File size : 3.28 GiB
  124. Duration : 51 min 37 s
  125. Overall bit rate mode : Variable
  126. Overall bit rate : 9 093 kb/s
  127. Writing application : Lavf58.45.100
  128.  
  129. Video
  130. ID : 1
  131. Format : AVC
  132. Format/Info : Advanced Video Codec
  133. Format profile : High@L5.2
  134. Format settings : CABAC / 4 Ref Frames
  135. Format settings, CABAC : Yes
  136. Format settings, Reference frames : 4 frames
  137. Codec ID : avc1
  138. Codec ID/Info : Advanced Video Coding
  139. Duration : 51 min 37 s
  140. Bit rate : 8 952 kb/s
  141. Width : 3 840 pixels
  142. Height : 1 920 pixels
  143. Display aspect ratio : 2.000
  144. Frame rate mode : Variable
  145. Frame rate : 59.714 FPS
  146. Minimum frame rate : 24.576 FPS
  147. Maximum frame rate : 60.000 FPS
  148. Color space : YUV
  149. Chroma subsampling : 4:2:0
  150. Bit depth : 8 bits
  151. Scan type : Progressive
  152. Bits/(Pixel*Frame) : 0.020
  153. Stream size : 3.23 GiB (98%)
  154. Writing library : x264 core 161 r3048 b86ae3c
  155. Encoding settings : cabac=1 / ref=2 / deblock=1:0:0 / analyse=0x3:0x113 / me=hex / subme=4 / psy=1 / psy_rd=1.00:0.00 / mixed_ref=0 / me_range=16 / chroma_me=1 / trellis=1 / 8x8dct=1 / cqm=0 / deadzone=21,11 / fast_pskip=1 / chroma_qp_offset=0 / threads=4 / lookahead_threads=1 / sliced_threads=0 / nr=0 / decimate=1 / interlaced=0 / bluray_compat=0 / constrained_intra=0 / bframes=3 / b_pyramid=2 / b_adapt=1 / b_bias=0 / direct=1 / weightb=1 / open_gop=0 / weightp=1 / keyint=300 / keyint_min=30 / scenecut=40 / intra_refresh=0 / rc_lookahead=20 / rc=crf / mbtree=1 / crf=22.0 / qcomp=0.60 / qpmin=0 / qpmax=69 / qpstep=4 / vbv_maxrate=19000 / vbv_bufsize=19000 / crf_max=0.0 / nal_hrd=none / filler=0 / ip_ratio=1.40 / aq=1:1.00
  156. Codec configuration box : avcC
  157.  
  158.  
  159. General
  160. Format : MPEG-4
  161. Format profile : Base Media
  162. Codec ID : isom (isom/iso2/avc1/mp41)
  163. File size : 2.63 GiB
  164. Duration : 43 min 10 s
  165. Overall bit rate : 8 717 kb/s
  166. Writing application : Lavf57.71.100
  167.  
  168. Video
  169. ID : 2
  170. Format : AVC
  171. Format/Info : Advanced Video Codec
  172. Format profile : High@L4.1
  173. Format settings : CABAC / 4 Ref Frames
  174. Format settings, CABAC : Yes
  175. Format settings, Reference frames : 4 frames
  176. Codec ID : avc1
  177. Codec ID/Info : Advanced Video Coding
  178. Duration : 43 min 10 s
  179. Bit rate : 8 448 kb/s
  180. Width : 3 840 pixels
  181. Height : 1 920 pixels
  182. Display aspect ratio : 2.000
  183. Frame rate mode : Constant
  184. Frame rate : 60.000 FPS
  185. Color space : YUV
  186. Chroma subsampling : 4:2:0
  187. Bit depth : 8 bits
  188. Scan type : Progressive
  189. Bits/(Pixel*Frame) : 0.019
  190. Stream size : 2.55 GiB (97%)
  191. Writing library : x264 core 148
  192. Encoding settings : cabac=1 / ref=3 / deblock=1:0:0 / analyse=0x3:0x113 / me=hex / subme=7 / psy=1 / psy_rd=1.00:0.00 / mixed_ref=1 / me_range=16 / chroma_me=1 / trellis=1 / 8x8dct=1 / cqm=0 / deadzone=21,11 / fast_pskip=1 / chroma_qp_offset=-2 / threads=48 / lookahead_threads=8 / sliced_threads=0 / nr=0 / decimate=1 / interlaced=0 / bluray_compat=0 / constrained_intra=0 / bframes=3 / b_pyramid=2 / b_adapt=1 / b_bias=0 / direct=1 / weightb=1 / open_gop=0 / weightp=2 / keyint=300 / keyint_min=30 / scenecut=40 / intra_refresh=0 / rc_lookahead=40 / rc=crf / mbtree=1 / crf=22.0 / qcomp=0.60 / qpmin=0 / qpmax=69 / qpstep=4 / ip_ratio=1.40 / aq=1:1.00
  193. Codec configuration box : avcC
  194.  
  195.  
  196. General
  197. Format : MPEG-4
  198. Format profile : Base Media
  199. Codec ID : isom (isom/iso2/avc1/mp41)
  200. File size : 3.27 GiB
  201. Duration : 44 min 16 s
  202. Overall bit rate : 10.6 Mb/s
  203. Writing application : Lavf57.71.100
  204.  
  205. Video
  206. ID : 2
  207. Format : AVC
  208. Format/Info : Advanced Video Codec
  209. Format profile : High@L4.1
  210. Format settings : CABAC / 4 Ref Frames
  211. Format settings, CABAC : Yes
  212. Format settings, Reference frames : 4 frames
  213. Codec ID : avc1
  214. Codec ID/Info : Advanced Video Coding
  215. Duration : 44 min 16 s
  216. Bit rate : 10.3 Mb/s
  217. Width : 3 840 pixels
  218. Height : 1 920 pixels
  219. Display aspect ratio : 2.000
  220. Frame rate mode : Constant
  221. Frame rate : 60.000 FPS
  222. Color space : YUV
  223. Chroma subsampling : 4:2:0
  224. Bit depth : 8 bits
  225. Scan type : Progressive
  226. Bits/(Pixel*Frame) : 0.023
  227. Stream size : 3.19 GiB (97%)
  228. Writing library : x264 core 148
  229. Encoding settings : cabac=1 / ref=3 / deblock=1:0:0 / analyse=0x3:0x113 / me=hex / subme=7 / psy=1 / psy_rd=1.00:0.00 / mixed_ref=1 / me_range=16 / chroma_me=1 / trellis=1 / 8x8dct=1 / cqm=0 / deadzone=21,11 / fast_pskip=1 / chroma_qp_offset=-2 / threads=48 / lookahead_threads=8 / sliced_threads=0 / nr=0 / decimate=1 / interlaced=0 / bluray_compat=0 / constrained_intra=0 / bframes=3 / b_pyramid=2 / b_adapt=1 / b_bias=0 / direct=1 / weightb=1 / open_gop=0 / weightp=2 / keyint=300 / keyint_min=30 / scenecut=40 / intra_refresh=0 / rc_lookahead=40 / rc=crf / mbtree=1 / crf=22.0 / qcomp=0.60 / qpmin=0 / qpmax=69 / qpstep=4 / ip_ratio=1.40 / aq=1:1.00
  230. Codec configuration box : avcC
  231.  
  232.  
  233. General
  234. Format : MPEG-4
  235. Format profile : Base Media
  236. Codec ID : isom (isom/iso2/avc1/mp41)
  237. File size : 3.13 GiB
  238. Duration : 35 min 42 s
  239. Overall bit rate : 12.6 Mb/s
  240. Writing application : Lavf57.71.100
  241.  
  242. Video
  243. ID : 2
  244. Format : AVC
  245. Format/Info : Advanced Video Codec
  246. Format profile : High@L4.1
  247. Format settings : CABAC / 4 Ref Frames
  248. Format settings, CABAC : Yes
  249. Format settings, Reference frames : 4 frames
  250. Codec ID : avc1
  251. Codec ID/Info : Advanced Video Coding
  252. Duration : 35 min 42 s
  253. Bit rate : 12.3 Mb/s
  254. Width : 3 840 pixels
  255. Height : 1 920 pixels
  256. Display aspect ratio : 2.000
  257. Frame rate mode : Constant
  258. Frame rate : 59.940 (60000/1001) FPS
  259. Color space : YUV
  260. Chroma subsampling : 4:2:0
  261. Bit depth : 8 bits
  262. Scan type : Progressive
  263. Bits/(Pixel*Frame) : 0.028
  264. Stream size : 3.07 GiB (98%)
  265. Writing library : x264 core 148
  266. Encoding settings : cabac=1 / ref=3 / deblock=1:0:0 / analyse=0x3:0x113 / me=hex / subme=7 / psy=1 / psy_rd=1.00:0.00 / mixed_ref=1 / me_range=16 / chroma_me=1 / trellis=1 / 8x8dct=1 / cqm=0 / deadzone=21,11 / fast_pskip=1 / chroma_qp_offset=-2 / threads=48 / lookahead_threads=8 / sliced_threads=0 / nr=0 / decimate=1 / interlaced=0 / bluray_compat=0 / constrained_intra=0 / bframes=3 / b_pyramid=2 / b_adapt=1 / b_bias=0 / direct=1 / weightb=1 / open_gop=0 / weightp=2 / keyint=300 / keyint_min=30 / scenecut=40 / intra_refresh=0 / rc_lookahead=40 / rc=crf / mbtree=1 / crf=22.0 / qcomp=0.60 / qpmin=0 / qpmax=69 / qpstep=4 / ip_ratio=1.40 / aq=1:1.00
  267. Language : English
  268. Color range : Limited
  269. Color primaries : BT.709
  270. Transfer characteristics : BT.709
  271. Matrix coefficients : BT.709
  272. Codec configuration box : avcC
  273.  
  274.  
  275. General
  276. Format : MPEG-4
  277. Format profile : Base Media
  278. Codec ID : isom (isom/iso2/avc1/mp41)
  279. File size : 3.12 GiB
  280. Duration : 42 min 11 s
  281. Overall bit rate : 10.6 Mb/s
  282. Writing application : Lavf57.71.100
  283.  
  284. Video
  285. ID : 2
  286. Format : AVC
  287. Format/Info : Advanced Video Codec
  288. Format profile : High@L4.1
  289. Format settings : CABAC / 4 Ref Frames
  290. Format settings, CABAC : Yes
  291. Format settings, Reference frames : 4 frames
  292. Codec ID : avc1
  293. Codec ID/Info : Advanced Video Coding
  294. Duration : 42 min 11 s
  295. Bit rate : 10.3 Mb/s
  296. Width : 3 840 pixels
  297. Height : 1 920 pixels
  298. Display aspect ratio : 2.000
  299. Frame rate mode : Constant
  300. Frame rate : 60.000 FPS
  301. Color space : YUV
  302. Chroma subsampling : 4:2:0
  303. Bit depth : 8 bits
  304. Scan type : Progressive
  305. Bits/(Pixel*Frame) : 0.023
  306. Stream size : 3.04 GiB (97%)
  307. Writing library : x264 core 148
  308. Encoding settings : cabac=1 / ref=3 / deblock=1:0:0 / analyse=0x3:0x113 / me=hex / subme=7 / psy=1 / psy_rd=1.00:0.00 / mixed_ref=1 / me_range=16 / chroma_me=1 / trellis=1 / 8x8dct=1 / cqm=0 / deadzone=21,11 / fast_pskip=1 / chroma_qp_offset=-2 / threads=48 / lookahead_threads=8 / sliced_threads=0 / nr=0 / decimate=1 / interlaced=0 / bluray_compat=0 / constrained_intra=0 / bframes=3 / b_pyramid=2 / b_adapt=1 / b_bias=0 / direct=1 / weightb=1 / open_gop=0 / weightp=2 / keyint=300 / keyint_min=30 / scenecut=40 / intra_refresh=0 / rc_lookahead=40 / rc=crf / mbtree=1 / crf=22.0 / qcomp=0.60 / qpmin=0 / qpmax=69 / qpstep=4 / ip_ratio=1.40 / aq=1:1.00
  309. Codec configuration box : avcC
  310.  
  311.  
  312. General
  313. Format : MPEG-4
  314. Format profile : Base Media
  315. Codec ID : isom (isom/iso2/avc1/mp41)
  316. File size : 3.23 GiB
  317. Duration : 39 min 41 s
  318. Overall bit rate : 11.7 Mb/s
  319. Writing application : Lavf57.71.100
  320.  
  321. Video
  322. ID : 2
  323. Format : AVC
  324. Format/Info : Advanced Video Codec
  325. Format profile : High@L4.1
  326. Format settings : CABAC / 4 Ref Frames
  327. Format settings, CABAC : Yes
  328. Format settings, Reference frames : 4 frames
  329. Codec ID : avc1
  330. Codec ID/Info : Advanced Video Coding
  331. Duration : 39 min 41 s
  332. Bit rate : 11.4 Mb/s
  333. Width : 3 840 pixels
  334. Height : 1 920 pixels
  335. Display aspect ratio : 2.000
  336. Frame rate mode : Constant
  337. Frame rate : 60.000 FPS
  338. Color space : YUV
  339. Chroma subsampling : 4:2:0
  340. Bit depth : 8 bits
  341. Scan type : Progressive
  342. Bits/(Pixel*Frame) : 0.026
  343. Stream size : 3.16 GiB (98%)
  344. Writing library : x264 core 148
  345. Encoding settings : cabac=1 / ref=3 / deblock=1:0:0 / analyse=0x3:0x113 / me=hex / subme=7 / psy=1 / psy_rd=1.00:0.00 / mixed_ref=1 / me_range=16 / chroma_me=1 / trellis=1 / 8x8dct=1 / cqm=0 / deadzone=21,11 / fast_pskip=1 / chroma_qp_offset=-2 / threads=48 / lookahead_threads=8 / sliced_threads=0 / nr=0 / decimate=1 / interlaced=0 / bluray_compat=0 / constrained_intra=0 / bframes=3 / b_pyramid=2 / b_adapt=1 / b_bias=0 / direct=1 / weightb=1 / open_gop=0 / weightp=2 / keyint=300 / keyint_min=30 / scenecut=40 / intra_refresh=0 / rc_lookahead=40 / rc=crf / mbtree=1 / crf=22.0 / qcomp=0.60 / qpmin=0 / qpmax=69 / qpstep=4 / ip_ratio=1.40 / aq=1:1.00
  346. Codec configuration box : avcC
  347.  
  348.  
  349.  
Advertisement
Add Comment
Please, Sign In to add comment
Advertisement